Торрент файл
скачать торрент магнет ссылка Добавлен: 13 сен 2014, 14:02
Размер: 1.46 ГБ
Сидеров: 45
Личеров: 3
Статус: (salma3)
Автор

СообщениеДобавлено: 13 сен 2014, 14:02 

В сети
Супермодератор
Аватара пользователя
Дата регистрации:
15 фев 2012, 16:44
Возраст: 28
Спасибо: 6565 / 2130
Сообщения: 43720
Пекло / Sueurs

Год выхода: 2002
Жанр: Боевик, Приключения
Режиссер: Луи-Паскаль Кувелер /Louis-Pascal Couvelaire

В ролях: Жан-Юг Англад, Жоаким де Альмейда, Самагор Стевенен, Ножа Куадра, Тьери Ашанти, Юбер Сент-Макари

О фильме:
Четверо отчаянных парней объединились в надежде на удачу. С грузом похищенного золота они хотят обмануть судьбу. Ничто, кроме добычи, не связывает их в этой стремительной гонке по раскаленной пустыне. Огромный трейлер и тонны ворованного золотого песка. Незнакомый перекупщик на берегу океана... Они сами выбрали свой путь. Они сами избрали это пекло!



Страна: Франция
Продолжительность: 01:39:00
Перевод: Профессиональный (полное дублирование)

Файл
Качество: DVDRip
Формат файла: AVI
Видео кодек: XviD
Аудио кодек: AC3
Видео: 720x304, 25.000 fps, XviD build 73 ~1657 kbps
Звук: 48 kHz, AC3 Dolby Digital, 3/2 (L,C,R,l,r) + LFE ch, ~448.00 kbps

Общее
Полное имя : Peklo.2002.DVDRip.avi
Формат : AVI
Формат/Информация : Audio Video Interleave
Размер файла : 1,46 Гбайт
Продолжительность : 1 ч. 39 м.
Общий поток : 2115 Кбит/сек
Программа кодирования : VirtualDubMod 1.5.10.3 | http://www.virtualdub-fr.org || (build 2550/release)
Библиотека кодирования : VirtualDubMod build 2550/release

Видео
Идентификатор : 0
Формат : MPEG-4 Visual
Профиль формата : Advanced Simple@L5
Параметр BVOP формата : 1
Параметр QPel формата : Нет
Параметр GMC формата : Без точки перехода
Параметр матрицы формата : Выборочная
Идентификатор кодека : XVID
Идентификатор кодека/Подсказка : XviD
Продолжительность : 1 ч. 39 м.
Битрейт : 1657 Кбит/сек
Ширина : 720 пикс.
Высота : 304 пикс.
Соотношение сторон : 2,35:1
Частота кадров : 25,000 кадр/сек
Цветовое пространство : YUV
Подвыборка цветности : 4:2:0
Битовая глубина : 8 бит
Тип развёртки : Прогрессивная
Метод сжатия : С потерями
Бит/(Пиксели*Кадры) : 0.303
Размер потока : 1,15 Гбайт (78%)
Библиотека кодирования : XviD 73

Аудио
Идентификатор : 1
Формат : AC-3
Формат/Информация : Audio Coding 3
Расширение режима : CM (complete main)
Идентификатор кодека : 2000
Продолжительность : 1 ч. 39 м.
Вид битрейта : Постоянный
Битрейт : 448 Кбит/сек
Канал(ы) : 6 канала(ов)
Расположение каналов : Front: L C R, Side: L R, LFE
Частота : 48,0 КГц
Битовая глубина : 16 бит
Метод сжатия : С потерями
Размер потока : 317 Мбайт (21%)
Выравнивание : Разделение по промежуткам
Продолжительность промежутка : 40 мс. (1,00 видеокадр)
Время предзагрузки промежутка : 500 ms


Релиз от: Leon-masl


_________________
Проголосуй за трекер Открытый торрент трекер - RUS-MEDIA.ORG

Проголосуй Открытый торрент трекер - RUS-MEDIA.ORG



реклама партнёра


Вернуться к началу
 Профиль Отправить личное сообщение  
 
   Похожие торренты   Автор   Торрент   Размер 
В этой теме нет новых непрочитанных сообщений. Адское пекло / Meltdown: Days of destruction [фантастика, боевик, триллер, 2006] DVDRip, Mvo

salma3

57 | 2

1.46 ГБ

В этой теме нет новых непрочитанных сообщений. Адское пекло: Дни разрушений / Meltdown: Days of destruction [Фантастика боевик, триллер, 2006] DVDRip, Mvo

salma3

95 | 20

1.37 ГБ

В этой теме нет новых непрочитанных сообщений. Пекло / Sunshine [фантастика, триллер, приключения, 2007] HDRip, Dub

salma3

76 | 3

1.45 ГБ

В этой теме нет новых непрочитанных сообщений. Пекло / Sunshine[фантастика, триллер, приключения, 2007] BDRip 1080p, Dub

salma3

743 | 51

4.37 ГБ

В этой теме нет новых непрочитанных сообщений. Опаздывать нельзя / Outta Time [Боевик, криминал, приключения, 2002] DVDRip, Avo

salma3

28 | 5

794.27 МБ

В этой теме нет новых непрочитанных сообщений. Непостижимый ужас / The Untold [ужасы, боевик, триллер, приключения, 2002] DVDRip, Mvo

salma3

21 | 4

1.46 ГБ

В этой теме нет новых непрочитанных сообщений. Квест Арианы / Ariana's Quest [Фэнтези, боевик, приключения, 2002] DVDRip, Dvo

salma3

3 | 1

1.47 ГБ


Начать новую тему Ответить на тему  [ 1 сообщение ] 




Для Мосгорсуда, Роскомнадзора и рекламодателей:: mosgorsud-torrent[собачка]yandex.ru