Торрент файл
скачать торрент магнет ссылка Добавлен: 13 сен 2014, 10:03
Размер: 2.05 ГБ
Сидеров: 23
Личеров: 2
Статус: (Dracon)
Автор

СообщениеДобавлено: 13 сен 2014, 10:03 

Не в сети
Зам. Админа
Аватара пользователя
Дата регистрации:
02 дек 2010, 12:39
Спасибо: 12461 / 214
Сообщения: 27968
Год выхода: 2014
Жанр: драма, мелодрама
Режиссер: Джош Бун
В ролях: Шейлин Вудли, Энсел Элгорт, Лора Дерн, Сэм Трэммелл, Нат Вулф, Уиллем Дефо, Лотте Вербеек, Ана Дела Крус, Рэнди Ковиц. Тони Саладна

О фильме:
Хэйзел больна раком. Несмотря на то, что болезнь временно отступила, девушка не чувствует ни капли радости. Она ходит в группу поддержки, где однажды знакомится с Августом Уотерсом и моментально влюбляется в него. Август и Хэйзел отправляются в полное страсти и жизни путешествие, которое лишний раз покажет им, что весь смысл жизни можно найти в любом ее отрезке.


Качество: HDRip
Видео: 720x384 (1.88:1), 23.976 fps, XviD build 50 ~1813 kbps avg, 0.27 bit/pixel
Аудио: 48 kHz, AC3 Dolby Digital, 3/2 (L,C,R,l,r) + LFE ch, ~384 kbps
Продолжительность: 02:12:53
Перевод: Дублированный [Лицензия]
E:с торрентовVinovaty.zvezdy.2014.D.HDRip.2100.avi
  General
    Complete name : E:с торрентовVinovaty.zvezdy.2014.D.HDRip.2100.avi
    Format : AVI
    Format/Info : Audio Video Interleave
    Format profile : OpenDML
    File size : 2.05 GiB
    Duration : 2h 12mn
    Overall bit rate : 2 209 Kbps
    Writing application : VirtualDubMod 1.5.10.3 | http://www.virtualdub-fr.org || (build 2550/release)
    Writing library : VirtualDubMod build 2550/release
  Video #0
    ID : 0
    Format : MPEG-4 Visual
    Format profile : Advanced Simple@L5
    Format settings, BVOP : 2
    Format settings, QPel : No
    Format settings, GMC : No warppoints
    Format settings, Matrix : Default (MPEG)
    Codec ID : XVID
    Codec ID/Hint : XviD
    Duration : 2h 12mn
    Bit rate : 1 813 Kbps
    Width : 720 pixels
    Height : 384 pixels
    Display aspect ratio : 1.85:1
    Frame rate : 23.976 fps
    Color space : YUV
    Chroma subsampling : 4:2:0
    Bit depth : 8 bits
    Scan type : Progressive
    Compression mode : Lossy
    Bits/(Pixel*Frame) : 0.273
    Stream size : 1.68 GiB (82%)
    Writing library : XviD 1.2.1 (UTC 2008-12-04)
  Audio #1
    ID : 1
    Format : AC-3
    Format/Info : Audio Coding 3
    Mode extension : CM (complete main)
    Format settings, Endianness : Big
    Codec ID : 2000
    Duration : 2h 12mn
    Bit rate mode : Constant
    Bit rate : 384 Kbps
    Channel(s) : 6 channels
    Channel positions : Front: L C R, Side: L R, LFE
    Sampling rate : 48.0 KHz
    Bit depth : 16 bits
    Compression mode : Lossy
    Stream size : 365 MiB (17%)
    Alignment : Split accross interleaves
    Interleave, duration : 42 ms (1.00 video frame)
    Interleave, preload duration : 500 ms







реклама партнёра


Вернуться к началу
 Профиль  
 
   Похожие торренты   Автор   Торрент   Размер 
В этой теме нет новых непрочитанных сообщений. Виноваты звезды / The Fault in Our Stars [Драма, мелодрама, 2014] BDRip 1080p, Dub+Sub [лицензия | Extended Cut]

Dracon

529 | 49

10.34 ГБ

В этой теме нет новых непрочитанных сообщений. Зажигая звёзды / Set Fire to the Stars (Энди Годдар) [Драма, 2014] HDRip, Mvo [ITunes]

Dracon

16 | 1

1.46 ГБ

В этой теме нет новых непрочитанных сообщений. Отцепись от звезд / Срывая звёзды / Unhook the Stars [мелодрама, 1996] HDRip, Mvo

salma3

13 | 2

1.44 ГБ

В этой теме нет новых непрочитанных сообщений. Зажигая звёзды / Set Fire to the Stars (Энди Годдар) [Драма, 2014] BDRip 720p, Mvo [ITunes]

Dracon

12 | 3

4.63 ГБ

В этой теме нет новых непрочитанных сообщений. Зажигая звёзды / Set Fire to the Stars (Энди Годдар) [Драма, 2014] BDRip 1080p, Mvo [ITunes]

Dracon

20 | 3

6.82 ГБ

В этой теме нет новых непрочитанных сообщений. Зажигая звёзды / Set Fire to the Stars (Энди Годдар / Andy Goddard) [2014г., Великобритания, драма, HDRip] MVO

Alfredovich

222 | 25

1.46 ГБ

В этой теме нет новых непрочитанных сообщений. Счастливые звезды над Генриеттой / The Stars Fell on Henrietta (Джеймс Кич / James Keach) [1995г., драма, DVDRip] MVO

Alfredovich

35 | 7

1.47 ГБ


Начать новую тему Ответить на тему  [ 1 сообщение ] 




Для Мосгорсуда, Роскомнадзора и рекламодателей:: mosgorsud-torrent[собачка]yandex.ru