Торрент файл
скачать торрент магнет ссылка Добавлен: 12 сен 2014, 21:58
Размер: 1.46 ГБ
Сидеров: 128
Личеров: 2
Статус: (salma3)
Автор

СообщениеДобавлено: 12 сен 2014, 21:58 

Не в сети
Супермодератор
Аватара пользователя
Дата регистрации:
15 фев 2012, 16:44
Возраст: 27
Спасибо: 5121 / 2089
Сообщения: 17282
Грань будущего / Edge of Tomorrow

Год выпуска: 2014
Жанр: фантастика, боевик
Режиссер: Даг Лайман / Doug Liman

В ролях: Том Круз, Эмили Блант, Брендан Глисон, Билл Пэкстон, Джонас Армстронг, Тони Вэй, Кик Гарри, Франц Драмех, Драгомир Мрсич, Шарлотта Райли

Описание: В недалёком будущем раса инопланетян вторгается на Землю. Никакая армия в мире не может противостоять им. Майор Уильям Кейдж умирает в бою, но случается невозможное - он оказывается во временной петле. Раз за разом он попадает в один и тот же бой, сражается и умирает... снова и снова. И каждое повторяющееся сражение приближает его к разгадке того, как победить врага.



Страна: США, Австралия
Продолжительность: 01:53:27
Перевод: Авторский [Дмитрий Есарев] [доступен благодаря mihey10]

Файл
Качество: WEB-DLRip
Формат файла: AVI
Видео кодек: XviD
Аудио кодек: AC3
Видео: XviD, 688x288 (2.40:1), 1443 kbps, 23,976 fps, 0,304 bpp
Аудио: AC3 / 5.1 / 48 kHz / 384 kbps / 16 bit

General
Complete name : E:my_ripGran.Budushego.2014.WEBDLRip1.46.by.Дядя_Лёша.avi
Format : AVI
Format/Info : Audio Video Interleave
File size : 1.46 GiB
Duration : 1h 53mn
Overall bit rate : 1 837 Kbps
Writing application : VirtualDubMod 1.5.10.3 | http://www.virtualdub-fr.org || (build 2550/release)
Writing library : VirtualDubMod build 2550/release

Video
ID : 0
Format : MPEG-4 Visual
Format profile : Advanced Simple@L5
Format settings, BVOP : 1
Format settings, QPel : No
Format settings, GMC : No warppoints
Format settings, Matrix : Custom
Codec ID : XVID
Codec ID/Hint : XviD
Duration : 1h 53mn
Bit rate : 1 444 Kbps
Width : 688 pixels
Height : 288 pixels
Display aspect ratio : 2.40:1
Frame rate : 23.976 fps
Color space : YUV
Chroma subsampling : 4:2:0
Bit depth : 8 bits
Scan type : Progressive
Compression mode : Lossy
Bits/(Pixel*Frame) : 0.304
Stream size : 1.14 GiB (79%)
Writing library : XviD 73

Audio
ID : 1
Format : AC-3
Format/Info : Audio Coding 3
Mode extension : CM (complete main)
Codec ID : 2000
Duration : 1h 53mn
Bit rate mode : Constant
Bit rate : 384 Kbps
Channel(s) : 6 channels
Channel positions : Front: L C R, Side: L R, LFE
Sampling rate : 48.0 KHz
Bit depth : 16 bits
Compression mode : Lossy
Stream size : 312 MiB (21%)
Alignment : Split accross interleaves
Interleave, duration : 42 ms (1.00 video frame)
Interleave, preload duration : 500 ms


_________________



реклама партнёра


Вернуться к началу
 Профиль Отправить личное сообщение  
 
   Похожие торренты   Автор   Торрент   Размер 
В этой теме нет новых непрочитанных сообщений. Грань будущего / Edge of Tomorrow [фантастика, боевик, 2014] WEB-DLRip, Dub [iTunes]

Dracon

1434 | 17

1.37 ГБ

В этой теме нет новых непрочитанных сообщений. Грань будущего / Edge of Tomorrow [фантастика, боевик, 2014] Blu-ray 3D CEE 1080p

Dracon

46 | 12

32.82 ГБ

В этой теме нет новых непрочитанных сообщений. Грань будущего / Edge of Tomorrow [фантастика, боевик, 2014] DVD5, Dub+Sub [Лицензия]

Dracon

193 | 17

4.37 ГБ

В этой теме нет новых непрочитанных сообщений. Грань будущего / Edge of Tomorrow [фантастика, боевик, 2014] HDRip, Dub [iPad]

salma3

222 | 23

1.52 ГБ

В этой теме нет новых непрочитанных сообщений. Грань будущего / Edge of Tomorrow [фантастика, боевик, 2014] WEB-DL 720p, Dub [iTunes]

Dracon

3939 | 158

4.01 ГБ

В этой теме нет новых непрочитанных сообщений. Грань будущего / Edge of Tomorrow [фантастика, боевик, 2014] BDRip 720p, Dub+Sub [Лицензия]

Dracon

2248 | 90

3.66 ГБ

В этой теме нет новых непрочитанных сообщений. Грань будущего / Edge of Tomorrow [фантастика, боевик, 2014] BDRip 1080p, Dub+Sub [Лицензия]

Dracon

195 | 14

15.56 ГБ


Начать новую тему Ответить на тему  [ 1 сообщение ] 




Для Мосгорсуда, Роскомнадзора и рекламодателей:: mosgorsud-torrent[собачка]yandex.ru