Торрент файл
скачать торрент магнет ссылка Добавлен: 12 сен 2014, 21:58
Размер: 1.46 ГБ
Сидеров: 128
Личеров: 2
Статус: (salma3)
Автор

СообщениеДобавлено: 12 сен 2014, 21:58 

Не в сети
Супермодератор
Аватара пользователя
Дата регистрации:
15 фев 2012, 16:44
Возраст: 28
Спасибо: 6644 / 2146
Сообщения: 45843
Грань будущего / Edge of Tomorrow

Год выпуска: 2014
Жанр: фантастика, боевик
Режиссер: Даг Лайман / Doug Liman

В ролях: Том Круз, Эмили Блант, Брендан Глисон, Билл Пэкстон, Джонас Армстронг, Тони Вэй, Кик Гарри, Франц Драмех, Драгомир Мрсич, Шарлотта Райли

Описание: В недалёком будущем раса инопланетян вторгается на Землю. Никакая армия в мире не может противостоять им. Майор Уильям Кейдж умирает в бою, но случается невозможное - он оказывается во временной петле. Раз за разом он попадает в один и тот же бой, сражается и умирает... снова и снова. И каждое повторяющееся сражение приближает его к разгадке того, как победить врага.



Страна: США, Австралия
Продолжительность: 01:53:27
Перевод: Авторский [Дмитрий Есарев] [доступен благодаря mihey10]

Файл
Качество: WEB-DLRip
Формат файла: AVI
Видео кодек: XviD
Аудио кодек: AC3
Видео: XviD, 688x288 (2.40:1), 1443 kbps, 23,976 fps, 0,304 bpp
Аудио: AC3 / 5.1 / 48 kHz / 384 kbps / 16 bit

General
Complete name : E:my_ripGran.Budushego.2014.WEBDLRip1.46.by.Дядя_Лёша.avi
Format : AVI
Format/Info : Audio Video Interleave
File size : 1.46 GiB
Duration : 1h 53mn
Overall bit rate : 1 837 Kbps
Writing application : VirtualDubMod 1.5.10.3 | http://www.virtualdub-fr.org || (build 2550/release)
Writing library : VirtualDubMod build 2550/release

Video
ID : 0
Format : MPEG-4 Visual
Format profile : Advanced Simple@L5
Format settings, BVOP : 1
Format settings, QPel : No
Format settings, GMC : No warppoints
Format settings, Matrix : Custom
Codec ID : XVID
Codec ID/Hint : XviD
Duration : 1h 53mn
Bit rate : 1 444 Kbps
Width : 688 pixels
Height : 288 pixels
Display aspect ratio : 2.40:1
Frame rate : 23.976 fps
Color space : YUV
Chroma subsampling : 4:2:0
Bit depth : 8 bits
Scan type : Progressive
Compression mode : Lossy
Bits/(Pixel*Frame) : 0.304
Stream size : 1.14 GiB (79%)
Writing library : XviD 73

Audio
ID : 1
Format : AC-3
Format/Info : Audio Coding 3
Mode extension : CM (complete main)
Codec ID : 2000
Duration : 1h 53mn
Bit rate mode : Constant
Bit rate : 384 Kbps
Channel(s) : 6 channels
Channel positions : Front: L C R, Side: L R, LFE
Sampling rate : 48.0 KHz
Bit depth : 16 bits
Compression mode : Lossy
Stream size : 312 MiB (21%)
Alignment : Split accross interleaves
Interleave, duration : 42 ms (1.00 video frame)
Interleave, preload duration : 500 ms


_________________
Проголосуй за трекер Открытый торрент трекер - RUS-MEDIA.ORG

Проголосуй Открытый торрент трекер - RUS-MEDIA.ORG



реклама партнёра


Вернуться к началу
 Профиль Отправить личное сообщение  
 
   Похожие торренты   Автор   Торрент   Размер 
В этой теме нет новых непрочитанных сообщений. Человек из будущего / The Tomorrow Man [фантастика, боевик, 2002] DVDRip, Mvo

salma3

19 | 4

1.45 ГБ

В этой теме нет новых непрочитанных сообщений. Небесный капитан и мир будущего / Sky Captain and the World of Tomorrow [фантастика, боевик, триллер, 2004] BDRip 720p, Dub+Sub

salma3

40 | 12

3.99 ГБ

В этой теме нет новых непрочитанных сообщений. Человек из будущего / The Tomorrow Man [фантастика, приключения, 1996] SATRip, Mvo+Avo

salma3

73 | 25

1.43 ГБ

В этой теме нет новых непрочитанных сообщений. Легенды завтрашнего дня / DC's Legends of Tomorrow [S02] [Фантастика, боевик, 2017] WEB-DLRip 1080p, Mvo [LostFilm]

salma3

54 | 199

30.08 ГБ

В этой теме нет новых непрочитанных сообщений. Легенды завтрашнего дня / DC's Legends of Tomorrow [S01-02] [Фантастика, боевик, 2016-2017] WEB-DLRip, Mvo [LostFilm]

salma3

62 | 43

16.13 ГБ

В этой теме нет новых непрочитанных сообщений. Легенды завтрашнего дня / DC's Legends of Tomorrow / 2 сезон 1-16 серии из 16 [Фантастика, боевик, 2016] WEB-DLRip, Mvo [LostFilm]

salma3

89 | 308

7.82 ГБ

В этой теме нет новых непрочитанных сообщений. Легенды завтрашнего дня / DC's Legends of Tomorrow / 1 сезон 1-15 серии из 16 [Фантастика, боевик, 2016] WEB-DLRip [NewStudio]

Dracon

31 | 68

7.89 ГБ


Начать новую тему Ответить на тему  [ 1 сообщение ] 




Для Мосгорсуда, Роскомнадзора и рекламодателей:: mosgorsud-torrent[собачка]yandex.ru