Торрент файл
скачать торрент магнет ссылка Добавлен: 12 сен 2014, 21:00
Размер: 1.46 ГБ
Сидеров: 17918
Личеров: 601
Статус: (Dracon)
Автор

СообщениеДобавлено: 12 сен 2014, 21:00 

Не в сети
Зам. Админа
Аватара пользователя
Дата регистрации:
02 дек 2010, 12:39
Спасибо: 12461 / 214
Сообщения: 27968
Год выпуска: 2014
Страна: США, Великобритания / Roth Films, Walt Disney Pictures
Жанр: фэнтези, семейный, мелодрама, приключения
Продолжительность: 01:37:28

Перевод: Профессиональный (дублированный)
Cубтитры: нет
Оригинальная аудиодорожка: нет

Режиссер: Роберт Стромберг / Robert Stromberg

В ролях: Анджелина Джоли, Эль Фаннинг, Шарлто Копли, Лесли Мэнвилл, Имелда Стонтон, Джуно Темпл, Сэм Райли, Брентон Туэйтс, Кеннет Крэнэм, Сара Флинд...

Роли дублировали: Светлана Кузнецова, Мария Якименко, Вадим Романов, Анастасия Фомичева, Александр Койгеров...

Описание: Юная волшебница Малефисента вела уединенную жизнь в зачарованном лесу, окруженная сказочными существами, но однажды все изменилось… В её мир вторглись люди, которые принесли с собой разрушение и хаос, и Малефисенте пришлось встать на защиту своих подданных, призвав на помощь могущественные тёмные силы. В пылу борьбы Малефисента наложила страшное заклятие на новорожденную дочь короля, прекрасную Аврору. Но, наблюдая за тем, как растет маленькая принцесса, Малефисента начинает сомневаться в правильности своего поступка — ведь, возможно, именно Аврора может вдохнуть новую жизнь в волшебное лесное царство.



Качество: BDRip
Формат: AVI
Видео: 720x304, XviD 1690 kbps / 24 fps / 2.40:1 / 0.322 bit/pix
Аудио: Russian: 48 kHz, AC3, 5/1 ch, 448.00 kbps

Общее
Полное имя : Malefisenta.2014.D.BDRip_[New-team]_by_avproh.avi
Формат : AVI
Формат/Информация : Audio Video Interleave
Размер файла : 1,46 Гбайт
Продолжительность : 1 ч. 37 м.
Общий поток : 2148 Кбит/сек
Программа кодирования : VirtualDubModRus 1.5.10.2 (build 2542/release)
Библиотека кодирования : VirtualDubMod build 2542/release

Видео
Идентификатор : 0
Формат : MPEG-4 Visual
Профиль формата : Advanced Simple@L5
Параметр BVOP формата : 1
Параметр QPel формата : Нет
Параметр GMC формата : Без точки перехода
Параметр матрицы формата : Выборочная
Идентификатор кодека : XVID
Идентификатор кодека/Подсказка : XviD
Продолжительность : 1 ч. 37 м.
Битрейт : 1690 Кбит/сек
Ширина : 720 пикселей
Высота : 304 пикселя
Соотношение сторон : 2,35:1
Частота кадров : 23,976 кадра/сек
Цветовое пространство : YUV
Субдискретизация насыщенности : 4:2:0
Битовая глубина : 8 бит
Тип развёртки : Прогрессивная
Метод сжатия : С потерями
Бит/(Пиксели*Кадры) : 0.322
Размер потока : 1,15 Гбайт (79%)
Библиотека кодирования : XviD 73

Аудио
Идентификатор : 1
Формат : AC-3
Формат/Информация : Audio Coding 3
Расширение режима : CM (complete main)
Параметр Endianness формата : Big
Идентификатор кодека : 2000
Продолжительность : 1 ч. 37 м.
Вид битрейта : Постоянный
Битрейт : 448 Кбит/сек
Каналы : 6 каналов
Расположение каналов : Front: L C R, Side: L R, LFE
Частота : 48,0 КГц
Битовая глубина : 16 бит
Метод сжатия : С потерями
Размер потока : 312 Мбайт (21%)
Выравнивание : Разделение по промежуткам
Продолжительность промежутка : 42 мс.




реклама партнёра


Вернуться к началу
 Профиль  
 
   Похожие торренты   Автор   Торрент   Размер 
В этой теме нет новых непрочитанных сообщений. Малефисента / Maleficent [фэнтези, боевик, мелодрама, приключения, семейный, 2014] BDRip 720p, Dub+Sub [лицензия]

Dracon

1632 | 59

4.36 ГБ

В этой теме нет новых непрочитанных сообщений. Малефисента / Maleficent [фэнтези, боевик, мелодрама, приключения, семейный, 2014] BDRip 1080p, Dub+Sub [лицензия | 3D-Video]

Dracon

728 | 37

5.8 ГБ

В этой теме нет новых непрочитанных сообщений. Малефисента / Maleficent [фэнтези, мелодрама, приключения, семейный, 2014] DVD5, Dub+Sub [лицензия]

Dracon

126 | 18

4.37 ГБ

В этой теме нет новых непрочитанных сообщений. Малефисента / Maleficent [фэнтези, боевик, мелодрама, приключения, семейный, 2014] Blu-ray 1080p, Dub+Sub [лицензия]

Dracon

108 | 33

32.5 ГБ

В этой теме нет новых непрочитанных сообщений. Малефисента / Maleficent [фэнтези, боевик, мелодрама, приключения, семейный, 2014] BDRip 1080p, Dub+Sub [iTunes]

Dracon

57 | 4

7.91 ГБ

В этой теме нет новых непрочитанных сообщений. Малефисента / Maleficent [фэнтези, семейный, мелодрама, приключения, 2014] HDRip, Dub [iPad]

salma3

75 | 10

1.31 ГБ

В этой теме нет новых непрочитанных сообщений. Малефисента / Maleficent [фэнтези, боевик, мелодрама, приключения, семейный, 2014] WEB-DLRip, Dub [iTunes]

Dracon

133 | 3

1.46 ГБ


Начать новую тему Ответить на тему  [ 1 сообщение ] 




Для Мосгорсуда, Роскомнадзора и рекламодателей:: mosgorsud-torrent[собачка]yandex.ru