Торрент файл
скачать торрент магнет ссылка Добавлен: 11 сен 2014, 11:06
Размер: 1.46 ГБ
Сидеров: 118
Личеров: 7
Статус: (Dracon)
Автор

СообщениеДобавлено: 11 сен 2014, 11:06 

Не в сети
Зам. Админа
Аватара пользователя
Дата регистрации:
02 дек 2010, 12:39
Спасибо: 12461 / 214
Сообщения: 27968
Год выпуска: 2014
Страна: Великобритания / IM Global, Vertigo Films
Жанр: мюзикл, мелодрама
Продолжительность: 01:33:09

Перевод: Профессиональный (дублированный)
Cубтитры: нет
Оригинальная аудиодорожка: нет

Режиссер: Макс Джива / Max Giwa, Дания Пасквини / Dania Pasquini

В ролях: Ханна Артертон, Джулио Мария Беррути, Анабель Шолей, Грег Уайз, Леона Льюис, Кэти Брэнд, Дэнни Киррейн, Люк Хоуп, Mariola Jaworska, Шэйн Сэлтер...

Роли дублировали: Валентина Абрамова, Александр Гаврилин, Марьяна Спивак, Денис Некрасов, Вероника Саркисова...

Описание: После красивого, бурного и стремительного романа Мэдди и Раф принимают решение пожениться. Мэдди счастлива. Она готовится к церемонии, приглашает гостей, среди которых — ее любимая сестра Тэйлор. Кто мог предположить, что между Рафом и Тэйлор была когда-то страстная любовь, которая, как оказалось, вовсе не угасла…



Качество: DVDRip
Формат: AVI
Видео: 720x320 (2.25:1), XViD 1846 Кбит/сек / 25.000 fps / Бит/(Пиксели*Кадры) : 0.320
Аудио: AC3 384 kbps / 5.1 ch / 48 kHz русский

Общее
Полное имя : Progulka.po.solnechnomu.svetu.2014.D.DVDRip_[New-Team]_by_avproh.avi
Формат : AVI
Формат/Информация : Audio Video Interleave
Размер файла : 1,46 Гбайт
Продолжительность : 1 ч. 33 м.
Общий поток : 2242 Кбит/сек
Программа кодирования : VirtualDubMod 1.5.10.3 | http://www.virtualdub-fr.org || (build 2550/release)
Библиотека кодирования : VirtualDubMod build 2550/release

Видео
Идентификатор : 0
Формат : MPEG-4 Visual
Профиль формата : Advanced Simple@L5
Параметр BVOP формата : 1
Параметр QPel формата : Нет
Параметр GMC формата : Без точки перехода
Параметр матрицы формата : Выборочная
Идентификатор кодека : XVID
Идентификатор кодека/Подсказка : XviD
Продолжительность : 1 ч. 33 м.
Битрейт : 1848 Кбит/сек
Ширина : 720 пикселей
Высота : 320 пикселей
Соотношение сторон : 2,25:1
Частота кадров : 25,000 кадров/сек
Цветовое пространство : YUV
Субдискретизация насыщенности : 4:2:0
Битовая глубина : 8 бит
Тип развёртки : Прогрессивная
Метод сжатия : С потерями
Бит/(Пиксели*Кадры) : 0.321
Размер потока : 1,20 Гбайт (82%)
Библиотека кодирования : XviD 73

Аудио
Идентификатор : 1
Формат : AC-3
Формат/Информация : Audio Coding 3
Расширение режима : CM (complete main)
Параметр Endianness формата : Big
Идентификатор кодека : 2000
Продолжительность : 1 ч. 33 м.
Вид битрейта : Постоянный
Битрейт : 384 Кбит/сек
Каналы : 6 каналов
Расположение каналов : Front: L C R, Side: L R, LFE
Частота : 48,0 КГц
Битовая глубина : 16 бит
Метод сжатия : С потерями
Размер потока : 256 Мбайт (17%)
Выравнивание : Разделение по промежуткам
Продолжительность промежутка : 40 мс. (1,00 видеокадр)
Время предзагрузки промежутка : 500 мс.




реклама партнёра


Вернуться к началу
 Профиль  
 
   Похожие торренты   Автор   Торрент   Размер 
В этой теме нет новых непрочитанных сообщений. Прогулка по солнечному свету / Walking on Sunshine [мюзикл, мелодрама, 2014] BDRemux, Dub [лицензия]

Dracon

12 | 6

21.14 ГБ

В этой теме нет новых непрочитанных сообщений. Прогулка по солнечному свету / Walking on Sunshine [мюзикл, мелодрама, 2014] WEB-DLRip, Dub [iTunes]

Dracon

60 | 2

1.37 ГБ

В этой теме нет новых непрочитанных сообщений. Прогулка по солнечному свету / Walking on Sunshine [мюзикл, мелодрама, 2014] WEB-DL 720p, Dub [iTunes]

Dracon

79 | 3

2.9 ГБ

В этой теме нет новых непрочитанных сообщений. Прогулка с мертвецами / Walking with the Dead (Скотт Дау) [комедия, 2015] HDRip, Mvo

Dracon

2461 | 145

1.47 ГБ

В этой теме нет новых непрочитанных сообщений. Ходячие мертвецы / The Walking Dead [07х01-02 из 16] (ужасы, фантастика, триллер, драма, 2016) HDTVRip 720р | Sunshine Studio

marya111

127 | 745

3.03 ГБ

В этой теме нет новых непрочитанных сообщений. AV Super Sunshine - AV Super Sunshine [2014, Classic Rock, MP3]

PriZraK

0 | 1

99.29 МБ

В этой теме нет новых непрочитанных сообщений. По секрету всему свету  (Роман Просвирнин) [Мелодрама, 2015] SATRip

Dracon

0 | 0

1.27 ГБ


Начать новую тему Ответить на тему  [ 1 сообщение ] 




Для Мосгорсуда, Роскомнадзора и рекламодателей:: mosgorsud-torrent[собачка]yandex.ru