Торрент файл
скачать торрент магнет ссылка Добавлен: 10 сен 2014, 20:09
Размер: 1.46 ГБ
Сидеров: 2490
Личеров: 104
Статус: (Dracon)
Автор

СообщениеДобавлено: 10 сен 2014, 20:09 

Не в сети
Зам. Админа
Аватара пользователя
Дата регистрации:
02 дек 2010, 12:39
Спасибо: 12461 / 214
Сообщения: 27968
Год выпуска: 2014
Страна: США, Болгария / Millennium Films
Жанр: боевик, фэнтези
Продолжительность: 01:38:33

Перевод: Профессиональный (дублированный)
Cубтитры: нет
Оригинальная аудиодорожка: нет

Режиссер: Ренни Харлин / Renny Harlin

В ролях: Келлан Латс, Скотт Эдкинс, Лиам МакИнтайр, Гайя Уайсс, Лайам Гэрриган, Роксанна МакКи, Раде Шербеджия, Джонатон Шек, Люк Ньюберри, Кеннет Крэнэм...

Роли дублировали: Олег Новиков, Владимир Антоник, Денис Некрасов, Евгения Ваган, Татьяна Шитова...

Описание: 1200 г. до н. э. Древняя Греция. Прекрасная царица Алкмена попала под чары грозного бога Олимпа — Зевса и родила ему сына Геракла. При рождении ему было предсказано стать величайшим воином, который будет властвовать над народами и принесет мир и процветание своей стране. Но пока Геракл ничего не знает о своем предназначении. Он вырос прекрасным и сильным юношей. Он мечтает о любви принцессы Крита, Гебы, которая обещана в жены его брату. Когда Геракл узнает о своей великой миссии, он должен выбрать: сбежать со своей любовью или исполнить свое предназначение.



Качество: BDRip
Формат: AVI
Видео: 720x304, XviD 1660 kbps / 24 fps / 2.40:1 / 0.316 bit/pix
Аудио: Russian: 48 kHz, AC3, 5/1 ch, 448.00 kbps

Общее
Полное имя : Gerakl.2014.D.BDRip_[New-Team]_by_avproh.avi
Формат : AVI
Формат/Информация : Audio Video Interleave
Размер файла : 1,46 Гбайт
Продолжительность : 1 ч. 38 м.
Общий поток : 2118 Кбит/сек
Программа кодирования : VirtualDubModRus 1.5.10.2 (build 2542/release)
Библиотека кодирования : VirtualDubMod build 2542/release

Видео
Идентификатор : 0
Формат : MPEG-4 Visual
Профиль формата : Advanced Simple@L5
Параметр BVOP формата : 1
Параметр QPel формата : Нет
Параметр GMC формата : Без точки перехода
Параметр матрицы формата : Выборочная
Идентификатор кодека : XVID
Идентификатор кодека/Подсказка : XviD
Продолжительность : 1 ч. 38 м.
Битрейт : 1660 Кбит/сек
Ширина : 720 пикселей
Высота : 304 пикселя
Соотношение сторон : 2,35:1
Частота кадров : 24,000 кадра/сек
Цветовое пространство : YUV
Субдискретизация насыщенности : 4:2:0
Битовая глубина : 8 бит
Тип развёртки : Прогрессивная
Метод сжатия : С потерями
Бит/(Пиксели*Кадры) : 0.316
Размер потока : 1,14 Гбайт (78%)
Библиотека кодирования : XviD 73

Аудио
Идентификатор : 1
Формат : AC-3
Формат/Информация : Audio Coding 3
Расширение режима : CM (complete main)
Параметр Endianness формата : Big
Идентификатор кодека : 2000
Продолжительность : 1 ч. 38 м.
Вид битрейта : Постоянный
Битрейт : 448 Кбит/сек
Каналы : 6 каналов
Расположение каналов : Front: L C R, Side: L R, LFE
Частота : 48,0 КГц
Битовая глубина : 16 бит
Метод сжатия : С потерями
Размер потока : 316 Мбайт (21%)
Выравнивание : Разделение по промежуткам
Продолжительность промежутка : 42 мс. (1,00 видеокадр)
Время предзагрузки промежутка : 500 мс.




реклама партнёра


Вернуться к началу
 Профиль  
 
   Похожие торренты   Автор   Торрент   Размер 
В этой теме нет новых непрочитанных сообщений. Геракл: Начало легенды / The Legend of Hercules [боевик, фэнтези, 2014] BDRip 1080p, Dub [лицензия]

Dracon

388 | 65

9.24 ГБ

В этой теме нет новых непрочитанных сообщений. Геракл: Начало легенды / The Legend of Hercules [боевик, фэнтези, 2014] BDRip 720p, Dub [лицензия]

Dracon

595 | 68

5.56 ГБ

В этой теме нет новых непрочитанных сообщений. Геракл: Начало легенды / The Legend of Hercules [боевик, фэнтези, 2014] DVD5, Dub [лицензия]

Dracon

61 | 13

4.37 ГБ

В этой теме нет новых непрочитанных сообщений. Геракл: Начало легенды / The Legend of Hercules [боевик, фэнтези, 2014] Blu-ray 1080p, Dub [лицензия]

Dracon

84 | 57

21.72 ГБ

В этой теме нет новых непрочитанных сообщений. Геракл: Начало легенды / The Legend of Hercules [боевик, фэнтези, 2014] BDRip 1080p, dub [3D-Video | Чистый звук]

Dracon

267 | 14

8.12 ГБ

В этой теме нет новых непрочитанных сообщений. Геракл: Начало легенды / The Legend of Hercules [боевик, фэнтези, 2014] HDRip, dub [Чистый звук]

Dracon

1888 | 22

1.37 ГБ

В этой теме нет новых непрочитанных сообщений. Геракл: Начало легенды / The Legend of Hercules (Ренни Харлин) [2014, боевик, фэнтези, HDRip | Чистый звук] Dub

PriZraK

2952 | 125

1.45 ГБ


Начать новую тему Ответить на тему  [ 1 сообщение ] 




Для Мосгорсуда, Роскомнадзора и рекламодателей:: mosgorsud-torrent[собачка]yandex.ru
cron