Торрент файл
скачать торрент магнет ссылка Добавлен: 10 сен 2014, 09:07
Размер: 1.46 ГБ
Сидеров: 1506
Личеров: 35
Статус: (Dracon)
Автор

СообщениеДобавлено: 10 сен 2014, 09:07 

Не в сети
Зам. Админа
Аватара пользователя
Дата регистрации:
02 дек 2010, 12:39
Спасибо: 12460 / 214
Сообщения: 27968
Год выпуска: 2014
Страна: Франция / Fidélité Films, M6, M6 Films, Orange Cinéma Séries, W9, Wild Bunch
Жанр: комедия
Продолжительность: 01:56:02

Перевод: Профессиональный (многоголосый)
Cубтитры: Русские
Оригинальная аудиодорожка: французский

Режиссер: Одри Дана / Audrey Dana

В ролях: Ванесса Паради, Изабель Аджани, Летиция Каста, Сильви Тестю, Марина Хэндс, Алис Белаиди, Жеральдин Накаш, Жюли Ферье, Одри Флеро, Одри Дана...

Описание: Париж. Любовь. И, конечно, француженки: свободные, непредсказуемые, изысканные и страстные. Сегодня они решили раскрыть свои секреты и поделиться желаниями. Это комедия о любви, сексе и поцелуях, о том, чего и кого хотят женщины.



Качество: BDRip
Формат: AVI
Видео: 720x304 (2.35:1), XviD ~1342 kbps, 24.000 fps, 0.255 bit/pix
Аудио: Russian: 48 kHz, AC3, 5/1 ch, ~448.00 kbps avg

Общее
Полное имя : Krasotki.v.Parije.2014.P.BDRip_[New-Team]_by_avproh.avi
Формат : AVI
Формат/Информация : Audio Video Interleave
Размер файла : 1,46 Гбайт
Продолжительность : 1 ч. 56 м.
Общий поток : 1799 Кбит/сек
Программа кодирования : VirtualDubModRus 1.5.10.2 (build 2542/release)
Библиотека кодирования : VirtualDubMod build 2542/release

Видео
Идентификатор : 0
Формат : MPEG-4 Visual
Профиль формата : Advanced Simple@L5
Параметр BVOP формата : 1
Параметр QPel формата : Нет
Параметр GMC формата : Без точки перехода
Параметр матрицы формата : Выборочная
Идентификатор кодека : XVID
Идентификатор кодека/Подсказка : XviD
Продолжительность : 1 ч. 56 м.
Битрейт : 1342 Кбит/сек
Ширина : 720 пикселей
Высота : 304 пикселя
Соотношение сторон : 2,35:1
Частота кадров : 24,000 кадра/сек
Цветовое пространство : YUV
Субдискретизация насыщенности : 4:2:0
Битовая глубина : 8 бит
Тип развёртки : Прогрессивная
Метод сжатия : С потерями
Бит/(Пиксели*Кадры) : 0.255
Размер потока : 1,09 Гбайт (75%)
Библиотека кодирования : XviD 73

Аудио
Идентификатор : 1
Формат : AC-3
Формат/Информация : Audio Coding 3
Расширение режима : CM (complete main)
Параметр Endianness формата : Big
Идентификатор кодека : 2000
Продолжительность : 1 ч. 56 м.
Вид битрейта : Постоянный
Битрейт : 448 Кбит/сек
Каналы : 6 каналов
Расположение каналов : Front: L C R, Side: L R, LFE
Частота : 48,0 КГц
Битовая глубина : 16 бит
Метод сжатия : С потерями
Размер потока : 372 Мбайт (25%)
Выравнивание : Разделение по промежуткам
Продолжительность промежутка : 42 мс. (1,00 видеокадр)
Время предзагрузки промежутка : 500 мс.




реклама партнёра


Вернуться к началу
 Профиль  
 
   Похожие торренты   Автор   Торрент   Размер 
В этой теме нет новых непрочитанных сообщений. Красотки в Париже / Sous les jupes des filles [комедия, 2014] Blu-ray 1080p, Mvo+Sub [лицензия]

Dracon

27 | 4

19.77 ГБ

В этой теме нет новых непрочитанных сообщений. Красотки в Париже / Sous les jupes des filles [комедия, 2014] WEB-DLRip, Mvo

Dracon

717 | 16

1.37 ГБ

В этой теме нет новых непрочитанных сообщений. Красотки в Париже / Sous les jupes des filles [комедия, 2014] WEB-DL 720p, Mvo

Dracon

277 | 9

3.81 ГБ

В этой теме нет новых непрочитанных сообщений. Джеки в царстве женщин / Jacky au royaume des filles (Риад Саттуф) [Комедия, 2014] BDRip 720p, dub [Лицензия]

Dracon

578 | 21

4.61 ГБ

В этой теме нет новых непрочитанных сообщений. Кухня в Париже [Комедия, 2014] BDRip 720p [Лицензия]

Dracon

86 | 5

5.28 ГБ

В этой теме нет новых непрочитанных сообщений. Кухня в Париже [Комедия, 2014] BDRip 1080p [Лицензия]

Dracon

143 | 8

9.41 ГБ

В этой теме нет новых непрочитанных сообщений. Кухня в Париже[Комедия, 2014] Blu-Ray [Лицензия]

Dracon

5 | 3

20.5 ГБ


Начать новую тему Ответить на тему  [ 1 сообщение ] 




Для Мосгорсуда, Роскомнадзора и рекламодателей:: mosgorsud-torrent[собачка]yandex.ru