Торрент файл
скачать торрент магнет ссылка Добавлен: 06 сен 2014, 20:32
Размер: 1.46 ГБ
Сидеров: 74
Личеров: 9
Статус: (salma3)
Автор

СообщениеДобавлено: 06 сен 2014, 20:32 

Не в сети
Супермодератор
Аватара пользователя
Дата регистрации:
15 фев 2012, 16:44
Возраст: 27
Спасибо: 5130 / 2089
Сообщения: 17350
Год выхода: 1988
Жанр: Комедия, приключения
Режиссер: Том Эберхардт

В ролях: Киану Ривз, Лори Лафлин, Тереза Салдана, Тринидад Силва, Сюзанн Снайдер, Морган Лофтинг, Гвил Ричардс, Крис Хеберт, Майкл Грин, Памела Гордон, Дэвид Шерилл, Исраэл Хуарбе, Майкл Страссер, Нед Беллами, Томми Листер, Ким Х. Орниц, Дениэль Д. Холлек, Сидни Голдсмит, Дайан Родригез, Пэтрика Дарбо, А. Тейлор Бертон

О фильме:
Молодой парень по имени Уинстон собирается на выпускной бал. Да не один, а вместе с самой красивой девочкой колледжа... Можно себе представить весь ужас, охвативший Уинса, когда он очнулся под утро лежащим на мостовой в каком-то грязном переулке, без отцовской машины, без спутницы, а самое главное - без малейшего представления о том, куда все это подевалось и что произошло с ним прошлой ночью…



Страна: США
Студия: Kings Road Entertainment, Zealcorp Productions Limited
Продолжительность: 01:26:36
Перевод: Профессиональный многоголосый (Фортуна-Фильм), авторский (П. Прямостанов)
Оригинальная аудио-дорожка: Английская

Файл
Кодек: XviD
Качество: DVDRip [Исходник: DVD-5]
Видео: XviD, 1826 Кбит/с, 688x416 (1.654), 25 кадр/с
Аудио #1: Русский, Dolby AC3, 48000 Гц, 192 Кбит/с, 2 канала (Стерео) - MVO, Фортуна-Фильм
Аудио #2: Русский, Dolby AC3, 48000 Гц, 192 Кбит/с, 2 канала (Стерео) - AVO, П. Прямостанов
Аудио #3: Английский, Dolby AC3, 48000 Гц, 192 Кбит/с, 2 канала (Стерео) - Оригинал
Субтитры: Нет



General
Complete name : The.Night.Before.1988.Triple.DVDRip.avi
Format : AVI
Format/Info : Audio Video Interleave
File size : 1.46 GiB
Duration : 1h 26mn
Overall bit rate : 2 416 Kbps
Movie name : Прошлой ночью / The Night Before (1988) DVDRip
Genre : Комедия, приключения
Recorded date : 06.09.2014
Writing application : VirtualDubMod 1.5.10.3 | http://www.virtualdub-fr.org || (build 2550/release)
Writing library : VirtualDubMod build 2550/release
Copyright : rip by ivandubskoj

Video
ID : 0
Format : MPEG-4 Visual
Format profile : Advanced Simple@L5
Format settings, BVOP : 1
Format settings, QPel : No
Format settings, GMC : No warppoints
Format settings, Matrix : Custom
Codec ID : XVID
Codec ID/Hint : XviD
Duration : 1h 26mn
Bit rate : 1 826 Kbps
Width : 688 pixels
Height : 416 pixels
Display aspect ratio : 1.654
Frame rate : 25.000 fps
Color space : YUV
Chroma subsampling : 4:2:0
Bit depth : 8 bits
Scan type : Progressive
Compression mode : Lossy
Bits/(Pixel*Frame) : 0.255
Stream size : 1.10 GiB (76%)
Writing library : XviD 73

Audio #1
ID : 1
Format : AC-3
Format/Info : Audio Coding 3
Mode extension : CM (complete main)
Format settings, Endianness : Big
Codec ID : 2000
Duration : 1h 26mn
Bit rate mode : Constant
Bit rate : 192 Kbps
Channel(s) : 2 channels
Channel positions : Front: L R
Sampling rate : 48.0 KHz
Bit depth : 16 bits
Compression mode : Lossy
Stream size : 119 MiB (8%)
Alignment : Split accross interleaves
Interleave, duration : 64 ms (1.60 video frames)
Interleave, preload duration : 500 ms
Title : Russian [MVO, Фортуна-Фильм]

Audio #2
ID : 2
Format : AC-3
Format/Info : Audio Coding 3
Mode extension : CM (complete main)
Format settings, Endianness : Big
Codec ID : 2000
Duration : 1h 26mn
Bit rate mode : Constant
Bit rate : 192 Kbps
Channel(s) : 2 channels
Channel positions : Front: L R
Sampling rate : 48.0 KHz
Bit depth : 16 bits
Compression mode : Lossy
Stream size : 119 MiB (8%)
Alignment : Split accross interleaves
Interleave, duration : 64 ms (1.60 video frames)
Interleave, preload duration : 500 ms
Title : Russian [AVO, П. Прямостанов]

Audio #3
ID : 3
Format : AC-3
Format/Info : Audio Coding 3
Mode extension : CM (complete main)
Format settings, Endianness : Big
Codec ID : 2000
Duration : 1h 26mn
Bit rate mode : Constant
Bit rate : 192 Kbps
Channel(s) : 2 channels
Channel positions : Front: L R
Sampling rate : 48.0 KHz
Bit depth : 16 bits
Compression mode : Lossy
Stream size : 119 MiB (8%)
Alignment : Split accross interleaves
Interleave, duration : 64 ms (1.60 video frames)
Interleave, preload duration : 500 ms
Title : English [Original]

Релиз от: ivandubskoj
Автор рипа - ivandubskoj


_________________



реклама партнёра


Вернуться к началу
 Профиль Отправить личное сообщение  
 
   Похожие торренты   Автор   Торрент   Размер 
В этой теме нет новых непрочитанных сообщений. Прошлой ночью / The Night Before [комедия, 1988] DVD5, Mvo+Avo

salma3

9 | 3

3.51 ГБ

В этой теме нет новых непрочитанных сообщений. Что случилось прошлой ночью / About Last Night [мелодрама, комедия, 2014] HDRip, Mvo [iTunes]

Dracon

1412 | 45

1.46 ГБ

В этой теме нет новых непрочитанных сообщений. Что случилось прошлой ночью / About Last Night [мелодрама, комедия, 2014] BDRip 1080p, Mvo+Sub [iTunes]

Dracon

3 | 2

10.43 ГБ

В этой теме нет новых непрочитанных сообщений. Что случилось прошлой ночью / About Last Night... [драма, мелодрама, комедия, 1986] BDRip 720p, Dub

salma3

67 | 38

4.98 ГБ

В этой теме нет новых непрочитанных сообщений. Что случилось прошлой ночью / About Last Night (Стив Пинк) [2014, Мелодрама, комедия, HDRip | iTunes] mvo

Nickolas3435

243 | 9

748.46 МБ

В этой теме нет новых непрочитанных сообщений. Ночь Страха 2 / Fright Night Part 2 [ Ужасы, комедия, триллер, 1988] Blu-Ray Remux 1080p, Avo

salma3

0 | 21

16.91 ГБ

В этой теме нет новых непрочитанных сообщений. Инициация: Тихая ночь, смертельная ночь 4 / Initiation: Silent Night, Deadly Night 4 [ужасы, триллер, 1990] DVDRip, Avo

salma3

127 | 304

1.37 ГБ


Начать новую тему Ответить на тему  [ 1 сообщение ] 




Для Мосгорсуда, Роскомнадзора и рекламодателей:: mosgorsud-torrent[собачка]yandex.ru