Торрент файл
скачать торрент магнет ссылка Добавлен: 05 сен 2014, 21:25
Размер: 1.46 ГБ
Сидеров: 49
Личеров: 3
Статус: (salma3)
Автор

СообщениеДобавлено: 05 сен 2014, 21:25 

В сети
Супермодератор
Аватара пользователя
Дата регистрации:
15 фев 2012, 16:44
Возраст: 27
Спасибо: 5121 / 2089
Сообщения: 17270
Темные силы / The Dark

«Один из живых за одного из мертвых»

Год выпуска: 2005
Жанр: мистика, ужасы, триллер, детектив
Режиссер: Джон Фоусет

В ролях: Софи Стаки, Мария Белло, Шон Бин, Морис Роевз, Эбигейл Стоун, Ричард Элфин, Каспер Харви, Элунд Джонс, Гвенит Петти, Робин Гриффит

Описание:
Адель и дочь Сара переезжают в Уэльс к отцу Сары Джеймсу, который поселился вдали от городской суеты недалеко от моря. Дом, в котором теперь проживает воссоединившееся семейство, имеет тесную связь с ранее совершённой в этой местности трагедией. Некогда здесь члены небольшой секты с идеологией, основанной на кельтской мифологии, совершили массовое самоубийство, сбросившись со скалы на прибрежные камни. Сделали они это для того, чтобы попасть в Аннун — потусторонний мир. Вскоре в доме, а также с новыми жильцами начинают происходить странные события.



Страна: Остров Мэн, Великобритания, Германия
Продолжительность: 01:29:35
Перевод: Профессиональный (полное дублирование) [Лицензия]

Файл
Качество: DVDRip-AVC
Формат файла: MKV
Видео кодек: H.264
Аудио кодек: AC3
Видео: 720x400 (16:9), 25.000 fps, AVC (H.264), High@L3.0 ~1948 kbps, 0.271 bit/pixel
Аудио: 48 kHz, AC3 Dolby Digital, 3/2 (L,C,R,l,r) + LFE ch, ~384 kbps

Фильм снят по роману Саймона Магинны «Овцы». В романе у молодых супругов был сын, в фильме решено было заменить его дочерью.
General
Unique ID : 241672112167882456996869060751854594254 (0xB5D05B12BE2D061781FD62CE1296E8CE)
Complete name : E:\The Dark_Klayd X.mkv
Format : Matroska
File size : 1.46 GiB
Duration : 1h 29mn
Overall bit rate : 2 336 Kbps
Encoded date : UTC 2008-10-22 11:15:48
Writing application : mkvmerge v2.3.0 ('Freak U') built on Sep 8 2008 18:32:16
Writing library : libebml v0.7.7 + libmatroska v0.8.1

Video
ID : 1
Format : AVC
Format/Info : Advanced Video Codec
Format profile : High@L3.0
Format settings, CABAC : Yes
Format settings, ReFrames : 3 frames
Codec ID : V_MPEG4/ISO/AVC
Duration : 1h 29mn
Bit rate : 1 948 Kbps
Width : 720 pixels
Height : 400 pixels
Display aspect ratio : 16:9
Frame rate : 25.000 fps
Color space : YUV
Chroma subsampling : 4:2:0
Bit depth : 8 bits
Scan type : Progressive
Bits/(Pixel*Frame) : 0.271
Stream size : 1.19 GiB (82%)
Writing library : x264 core 65 r999 cc51047
Encoding settings : cabac=1 / ref=3 / deblock=1:-1:-1 / analyse=0x3:0x113 / me=hex / subme=6 / psy_rd=1.0:0.0 / mixed_ref=1 / me_range=16 / chroma_me=1 / trellis=1 / 8x8dct=1 / cqm=0 / deadzone=21,11 / chroma_qp_offset=-2 / threads=3 / nr=0 / decimate=1 / mbaff=0 / bframes=16 / b_pyramid=1 / b_adapt=1 / b_bias=0 / direct=3 / wpredb=1 / keyint=250 / keyint_min=25 / scenecut=40(pre) / rc=2pass / bitrate=1948 / ratetol=1.0 / qcomp=0.60 / qpmin=10 / qpmax=51 / qpstep=4 / cplxblur=20.0 / qblur=0.5 / ip_ratio=1.40 / pb_ratio=1.30 / aq=1:1.00

Audio
ID : 2
Format : AC-3
Format/Info : Audio Coding 3
Mode extension : CM (complete main)
Codec ID : A_AC3
Duration : 1h 29mn
Bit rate mode : Constant
Bit rate : 384 Kbps
Channel(s) : 6 channels
Channel positions : Front: L C R, Side: L R, LFE
Sampling rate : 48.0 KHz
Bit depth : 16 bits
Compression mode : Lossy
Stream size : 246 MiB (16%)
Language : Russian


_________________



реклама партнёра


Вернуться к началу
 Профиль Отправить личное сообщение  
 
   Похожие торренты   Автор   Торрент   Размер 
В этой теме нет новых непрочитанных сообщений. Темные углы / Dark Corners [Ужасы, триллер, мистика, 2006] DVDRip, Mvo

salma3

98 | 1

1.46 ГБ

В этой теме нет новых непрочитанных сообщений. Темные тайны / Dark Places (Жиль Паке-Бреннер) [триллер, драма, детектив, 2015] WEB-DL 720p [Матвеев]

Dracon

5 | 0

3.41 ГБ

В этой теме нет новых непрочитанных сообщений. Темные тайны / Dark Places (Жиль Паке-Бреннер) [триллер, драма, детектив, 2015] WEB-DL 1080p [Матвеев]

Dracon

14 | 1

4.12 ГБ

В этой теме нет новых непрочитанных сообщений. Темные тайны / Dark Places (Жиль Паке-Бреннер) [триллер, драма, детектив, 2015] WEB-DLRip [Матвеев]

Dracon

40 | 0

1.41 ГБ

В этой теме нет новых непрочитанных сообщений. Темные тайны / Dark Places (Жиль Паке-Бреннер) [триллер, драма, детектив, 2015] WEB-DLRip [Матвеев]

Dracon

2944 | 54

2.05 ГБ

В этой теме нет новых непрочитанных сообщений. Фантомы / Shutter [ужасы, мистика, триллер, детектив, 2008] BDRip, Dub+Sub [Лицензия]

salma3

28 | 3

1.45 ГБ

В этой теме нет новых непрочитанных сообщений. Заклятие 2 / The Conjuring 2 [ужасы, мистика, триллер, детектив, 2016] BDRip, Dub [Лицензия]

salma3

280 | 168

1.46 ГБ


Начать новую тему Ответить на тему  [ 1 сообщение ] 




Для Мосгорсуда, Роскомнадзора и рекламодателей:: mosgorsud-torrent[собачка]yandex.ru