Торрент файл
скачать торрент магнет ссылка Добавлен: 05 сен 2014, 10:00
Размер: 2.05 ГБ
Сидеров: 462
Личеров: 4
Статус: (Dracon)
Автор

СообщениеДобавлено: 05 сен 2014, 10:00 

Не в сети
Зам. Админа
Аватара пользователя
Дата регистрации:
02 дек 2010, 12:39
Спасибо: 12461 / 214
Сообщения: 27968
Год выхода: 2014
Жанр: фантастика, фэнтези, боевик, приключения
Режиссер: Брайан Сингер
В ролях: Майкл Фассбендер, Джеймс МакЭвой, Хью Джекман, Дженнифер Лоуренс, Иэн МакКеллен, Патрик Стюарт, Николас Холт, Эллен Пейдж, Холли Берри, Питер Динклэйдж

О фильме
: В недалёком будущем мутанты близки к истреблению роботами-охотниками на мутантов Стражами. Единственная надежда для мутантов выжить — предотвратить череду роковых событий, приведших к появлению Стражей. С помощью своих способностей, Китти Прайд перемещает сознание Росомахи в его молодое тело в 1973 год. В прошлом всё оказывается не так радужно: молодой Профессор Икс окончательно разочарован в своих идеях, Магнето содержится в тюрьме глубоко под землёй, а человечество не знает как реагировать на широкое появление мутантов…


Выпущено: США, Великобритания
Продолжительность: 02:11:36
Озвучивание: Дублированное [Чистый звук] Официальный

Формат: AVI (XviD)
Качество: WEB-DLRip [Рип с WEB-DL 720p]
Видео: 1998 kb/s, 720x304
Аудио: AC3, 224 kb/s (2 ch)

Format : AVI
Format/Info : Audio Video Interleave
Format profile : OpenDML
File size : 2.05 GiB
Duration : 2h 11mn
Overall bit rate : 2 234 Kbps
Writing application : VirtualDubMod 1.5.10.3 | http://www.virtualdub-fr.org || (build 2550/release)
Writing library : VirtualDubMod build 2550/release

Video
ID : 0
Format : MPEG-4 Visual
Format profile : Advanced Simple@L5
Format settings, BVOP : 1
Format settings, QPel : No
Format settings, GMC : No warppoints
Format settings, Matrix : Custom
Codec ID : XVID
Codec ID/Hint : XviD
Duration : 2h 11mn
Bit rate : 1 998 Kbps
Width : 720 pixels
Height : 304 pixels
Display aspect ratio : 2.35:1
Frame rate : 23.976 fps
Color space : YUV
Chroma subsampling : 4:2:0
Bit depth : 8 bits
Scan type : Progressive
Compression mode : Lossy
Bits/(Pixel*Frame) : 0.381
Stream size : 1.84 GiB (89%)
Writing library : XviD 73

Audio
ID : 1
Format : AC-3
Format/Info : Audio Coding 3
Mode extension : CM (complete main)
Format settings, Endianness : Big
Codec ID : 2000
Duration : 2h 11mn
Bit rate mode : Constant
Bit rate : 224 Kbps
Channel(s) : 2 channels
Channel positions : Front: L R
Sampling rate : 48.0 KHz
Bit depth : 16 bits
Compression mode : Lossy
Stream size : 211 MiB (10%)
Alignment : Split accross interleaves
Interleave, duration : 42 ms (1.00 video frame)
Interleave, preload duration : 500 ms




реклама партнёра


Вернуться к началу
 Профиль  
 
   Похожие торренты   Автор   Торрент   Размер 
В этой теме нет новых непрочитанных сообщений. Люди Икс: Дни минувшего будущего / X-Men: Days of Future Past [фантастика, фэнтези, боевик, приключения, 2014] WEB-DLRip, Dub [iTunes]

Dracon

455 | 8

1.45 ГБ

В этой теме нет новых непрочитанных сообщений. Люди Икс: Дни минувшего будущего / X-Men: Days of Future Past [фантастика, фэнтези, боевик, приключения, 2014] Blu-ray 3D EUR 1080p, Dub+Sub

Dracon

54 | 6

43.89 ГБ

В этой теме нет новых непрочитанных сообщений. Люди Икс: Дни минувшего будущего / X-Men: Days of Future Past [фантастика, фэнтези, боевик, приключения, 2014] Blu-ray EUR 1080p, Dub+Sub

Dracon

25 | 6

42.87 ГБ

В этой теме нет новых непрочитанных сообщений. Люди Икс: Дни минувшего будущего / X-Men: Days of Future Past [фантастика, фэнтези, боевик, приключения, 2014] WEB-DL 720p, Dub+Sub [iTunes]

Dracon

423 | 3

4.58 ГБ

В этой теме нет новых непрочитанных сообщений. Люди Икс: Дни минувшего будущего / X-Men: Days of Future Past [фантастика, фэнтези, боевик, приключения, 2014] BDRip, Dub [Лицензия]

Dracon

3222 | 112

2.18 ГБ

В этой теме нет новых непрочитанных сообщений. Люди Икс: Дни минувшего будущего / X-Men: Days of Future Past [фантастика, фэнтези, боевик, приключения, 2014] HDRip-AVC, Dub+Sub [Лицензия]

Dracon

181 | 4

2.04 ГБ

В этой теме нет новых непрочитанных сообщений. Люди Икс: Дни минувшего будущего / X-Men: Days of Future Past [фантастика, фэнтези, боевик, приключения, 2014] BDRip 1080p, Dub+Sub [Лицензия]

Dracon

189 | 10

15.12 ГБ


Начать новую тему Ответить на тему  [ 1 сообщение ] 




Для Мосгорсуда, Роскомнадзора и рекламодателей:: mosgorsud-torrent[собачка]yandex.ru