Торрент файл
скачать торрент магнет ссылка Добавлен: 05 сен 2014, 10:00
Размер: 2.05 ГБ
Сидеров: 462
Личеров: 5
Статус: (Dracon)
Автор

СообщениеДобавлено: 05 сен 2014, 10:00 

Не в сети
Зам. Админа
Аватара пользователя
Дата регистрации:
02 дек 2010, 12:39
Спасибо: 12623 / 214
Сообщения: 28033
Год выхода: 2014
Жанр: фантастика, фэнтези, боевик, приключения
Режиссер: Брайан Сингер
В ролях: Майкл Фассбендер, Джеймс МакЭвой, Хью Джекман, Дженнифер Лоуренс, Иэн МакКеллен, Патрик Стюарт, Николас Холт, Эллен Пейдж, Холли Берри, Питер Динклэйдж

О фильме
: В недалёком будущем мутанты близки к истреблению роботами-охотниками на мутантов Стражами. Единственная надежда для мутантов выжить — предотвратить череду роковых событий, приведших к появлению Стражей. С помощью своих способностей, Китти Прайд перемещает сознание Росомахи в его молодое тело в 1973 год. В прошлом всё оказывается не так радужно: молодой Профессор Икс окончательно разочарован в своих идеях, Магнето содержится в тюрьме глубоко под землёй, а человечество не знает как реагировать на широкое появление мутантов…


Выпущено: США, Великобритания
Продолжительность: 02:11:36
Озвучивание: Дублированное [Чистый звук] Официальный

Формат: AVI (XviD)
Качество: WEB-DLRip [Рип с WEB-DL 720p]
Видео: 1998 kb/s, 720x304
Аудио: AC3, 224 kb/s (2 ch)

Format : AVI
Format/Info : Audio Video Interleave
Format profile : OpenDML
File size : 2.05 GiB
Duration : 2h 11mn
Overall bit rate : 2 234 Kbps
Writing application : VirtualDubMod 1.5.10.3 | http://www.virtualdub-fr.org || (build 2550/release)
Writing library : VirtualDubMod build 2550/release

Video
ID : 0
Format : MPEG-4 Visual
Format profile : Advanced Simple@L5
Format settings, BVOP : 1
Format settings, QPel : No
Format settings, GMC : No warppoints
Format settings, Matrix : Custom
Codec ID : XVID
Codec ID/Hint : XviD
Duration : 2h 11mn
Bit rate : 1 998 Kbps
Width : 720 pixels
Height : 304 pixels
Display aspect ratio : 2.35:1
Frame rate : 23.976 fps
Color space : YUV
Chroma subsampling : 4:2:0
Bit depth : 8 bits
Scan type : Progressive
Compression mode : Lossy
Bits/(Pixel*Frame) : 0.381
Stream size : 1.84 GiB (89%)
Writing library : XviD 73

Audio
ID : 1
Format : AC-3
Format/Info : Audio Coding 3
Mode extension : CM (complete main)
Format settings, Endianness : Big
Codec ID : 2000
Duration : 2h 11mn
Bit rate mode : Constant
Bit rate : 224 Kbps
Channel(s) : 2 channels
Channel positions : Front: L R
Sampling rate : 48.0 KHz
Bit depth : 16 bits
Compression mode : Lossy
Stream size : 211 MiB (10%)
Alignment : Split accross interleaves
Interleave, duration : 42 ms (1.00 video frame)
Interleave, preload duration : 500 ms




реклама партнёра


Вернуться к началу
 Профиль  
 
   Похожие торренты   Автор   Торрент   Размер 
В этой теме нет новых непрочитанных сообщений. Люди Икс: Дни минувшего будущего / X-Men: Days of Future Past (Брайан Сингер) [фантастика, фэнтези, боевик, приключения, 2014] DVD5, Dub+Sub [сжатый]

Dracon

114 | 11

4.34 ГБ

В этой теме нет новых непрочитанных сообщений. Бэтмен против Супермена: На заре справедливости / Batman v Superman: Dawn of Justice [Фантастика, фэнтези, боевик, приключения, 2016] WEB-DLRip, Dub [Чистый Звук]

salma3

2136 | 76

2.05 ГБ

В этой теме нет новых непрочитанных сообщений. Бэтмен против Супермена: На заре справедливости / Batman v Superman: Dawn of Justice [Фантастика, фэнтези, боевик, приключения, 2016] WEB-DLRip, Dub [Чистый Звук]

salma3

80 | 2

1.37 ГБ

В этой теме нет новых непрочитанных сообщений. Кредо убийцы / Assassin's Creed [фантастика, фэнтези, боевик, 2016] WEB-DLRip-AVC, Dub [чистый звук]

salma3

644 | 215

1.41 ГБ

В этой теме нет новых непрочитанных сообщений. Гнездо дракона / Dragon Nest: Warriors' Dawn (Юэфэн Сун) [фэнтези, приключения, семейный, 2014] WEB-DLRip, dub [Чистый звук]

Dracon

7 | 1

1.37 ГБ

В этой теме нет новых непрочитанных сообщений. Волшебная страна чудес / Magic Wonderland (Цзяньрон Ву, Леон Динг) [мультфильм, фэнтези, приключения, 2014] WEB-DLRip, dub [Чистый звук]

Dracon

354 | 18

1.46 ГБ

В этой теме нет новых непрочитанных сообщений. Хорошие люди / Good People [боевик, триллер, криминал, 2014] BDRip 1080p, dub [Чистый звук]

Dracon

242 | 18

7.53 ГБ


Начать новую тему Ответить на тему  [ 1 сообщение ] 




Для Мосгорсуда, Роскомнадзора и рекламодателей:: mosgorsud-torrent[собачка]yandex.ru