Торрент файл
скачать торрент магнет ссылка Добавлен: 02 сен 2014, 13:26
Размер: 1.46 ГБ
Сидеров: 48
Личеров: 4
Статус: (salma3)
Автор

СообщениеДобавлено: 02 сен 2014, 13:26 

Не в сети
Супермодератор
Аватара пользователя
Дата регистрации:
15 фев 2012, 16:44
Возраст: 27
Спасибо: 5139 / 2090
Сообщения: 17466
Крутые Стволы / Mean Guns

Год выхода: 1997
Жанр: криминал, боевик
Режиссер: Альберт Пьюн / Albert Pyun

В ролях: Кристофер Ламберт, Айс-Ти, Майкл Холси, Кимберли Уоррен, Тина Котэ, Юджи Окумото, Том Мэтьюз, Хантер Доути, Дебора Ван Валкенберг

О фильме:
В только что отстроенной тюрьме некий Мун собирает самых крутых боевиков синдиката и объявляет правила игры, отказаться от которых невозможно. Трое оставшихся в живых должны забрать приз в 10 млн. долларов.
Игра начинается. В общем сражении образуются две группы, из которых выделяется одна - с политическим профессиональным убийцей, его бывшим боссом, очень крутой блондинкой и случайно попавшей в эту историю журналисткой.



Страна: США
Студия: Filmwerks
Продолжительность: 01:45:30
Перевод: Профессиональный (двухголосый закадровый) [Twister]

Файл
Качество: DVDRip
Формат файла: AVI
Видео кодек: XviD
Аудио кодек: AC3
Видео: 720x304, 25,000 fps, 1591 kbps
Звук: AC3, 6 ch, 384 kbps, 48kHz

Общее
Полное имя : MEAN GUNS.DVDRip.avi
Формат : AVI
Формат/Информация : Audio Video Interleave
Размер файла : 1,46 Гбайт
Продолжительность : 1 ч. 45 м.
Общий поток : 1985 Кбит/сек
Программа кодирования : VirtualDubMod 1.5.10.3 | http://www.virtualdub-fr.org || (build 2550/release)
Библиотека кодирования : VirtualDubMod build 2550/release

Видео
Идентификатор : 0
Формат : MPEG-4 Visual
Профиль формата : Advanced Simple@L5
Параметр BVOP формата : 1
Параметр QPel формата : Нет
Параметр GMC формата : Без точки перехода
Параметр матрицы формата : Выборочная
Идентификатор кодека : XVID
Идентификатор кодека/Подсказка : XviD
Продолжительность : 1 ч. 45 м.
Битрейт : 1591 Кбит/сек
Ширина : 720 пикс.
Высота : 304 пикс.
Соотношение сторон : 2,35:1
Частота кадров : 25,000 кадр/сек
Цветовое пространство : YUV
Подвыборка цветности : 4:2:0
Битовая глубина : 8 бит
Тип развёртки : Прогрессивная
Метод сжатия : С потерями
Бит/(Пиксели*Кадры) : 0.291
Размер потока : 1,17 Гбайт (80%)
Библиотека кодирования : XviD 73

Аудио
Идентификатор : 1
Формат : AC-3
Формат/Информация : Audio Coding 3
Расширение режима : CM (complete main)
Идентификатор кодека : 2000
Продолжительность : 1 ч. 45 м.
Вид битрейта : Постоянный
Битрейт : 384 Кбит/сек
Канал(ы) : 6 канала(ов)
Расположение каналов : Front: L C R, Side: L R, LFE
Частота : 48,0 КГц
Битовая глубина : 16 бит
Метод сжатия : С потерями
Размер потока : 290 Мбайт (19%)
Выравнивание : Разделение по промежуткам
Продолжительность промежутка : 40 мс. (1,00 видеокадр)
Время предзагрузки промежутка : 500 m


Релиз от: Leon-masl


_________________



реклама партнёра


Вернуться к началу
 Профиль Отправить личное сообщение  
 
   Похожие торренты   Автор   Торрент   Размер 
В этой теме нет новых непрочитанных сообщений. Крутые стволы / Mean Guns [боевик, триллер, криминал, 1997] BDRip 1080p, Mvo+Sub

salma3

43 | 8

12.33 ГБ

В этой теме нет новых непрочитанных сообщений. Крутые парни / Крутые ребята / Крутые мужики / Tough Guys [криминал, комедия, 1986] WEB-DL 720p, Dub+Mvo+Sub

salma3

4 | 1

3.36 ГБ

В этой теме нет новых непрочитанных сообщений. Быстрые стволы / I Kina spiser de hunde [Комедийный боевик, криминал, 1999] BDRip 1080p, Dvo+Sub

salma3

64 | 10

7.88 ГБ

В этой теме нет новых непрочитанных сообщений. Крутые времена / Hard Time [боевик, драма, криминал, 1998] DVDRip, Avo

salma3

3 | 1

1.14 ГБ

В этой теме нет новых непрочитанных сообщений. Эскадроны смерти / Men with Guns [драма, военный, 1997] DVDRip, Dvo

salma3

4 | 2

1.43 ГБ

В этой теме нет новых непрочитанных сообщений. Молодые стрелки / Young Guns [Боевик, Триллер, Вестерн, Криминал, 1988] Blu-ray 1080p, Dvo+Sub

salma3

1 | 1

21.58 ГБ

В этой теме нет новых непрочитанных сообщений. Молодые стрелки / Young Guns [Боевик, Триллер, Вестерн, Криминал, 1988] BDRip 720p, Dvo+Avo

salma3

0 | 0

5.18 ГБ


Начать новую тему Ответить на тему  [ 1 сообщение ] 




Для Мосгорсуда, Роскомнадзора и рекламодателей:: mosgorsud-torrent[собачка]yandex.ru