Торрент файл
скачать торрент магнет ссылка Добавлен: 30 авг 2014, 12:00
Размер: 2.16 ГБ
Сидеров: 310
Личеров: 7
Статус: (salma3)
Автор

СообщениеДобавлено: 30 авг 2014, 12:00 

Не в сети
Зам. Админа
Аватара пользователя
Дата регистрации:
02 дек 2010, 12:39
Спасибо: 12461 / 214
Сообщения: 27968
Год выпуска: 2014
Страна: США / Gulfstream Pictures, Happy Madison Productions, Karz Entertainment, Warner Bros. Pictures, Warner Brothers
Жанр: комедия, семейный
Продолжительность: 01:57:14
Перевод: Профессиональный (дублированный)
Cубтитры: нет
Оригинальная аудиодорожка: английский
Режиссер: Фрэнк Корачи / Frank Coraci
В ролях: Адам Сэндлер, Дрю Бэрримор, Кевин Нилон, Терри Крюс, Венди МакЛендон-Кови, Эмма Фурманн, Белла Торн, Брэкстон Бэкхам, Аливия Элин Линд,
Джоэл МакХэйл...
Роли дублировали: Сергей Бурунов, Марианна Шульц, Анастасия Лапина, Полина Чекан, Василий Дахненко...
Описание: После катастрофического свидания «вслепую»  родители-одиночки Лорен и Джим согласны только в одном: они не хотят больше видеть друг друга никогда! Полагая, что их знакомство окончено, обе семьи пользуются удобным случаем и отправляются в идеальный отпуск с детьми. А оказываются в одних и тех же гостиничных апартаментах на роскошном южноафриканском курорте аж на целую неделю.

Качество: HDRip / Blu-ray 1080p + Smeshann1e.2014.D.HDRip.2100.avi
Формат: AVI
Видео: 720x384, XviD, 1723 kbps / 23,976 fps / 1.85:1 / High Profile 4.1 / 0.260 bit/pix
Аудио 1: Dolby Digital Audio Russian 448 kbps 5.1 / 48 kHz / 640 kbps / DN -4dB
Аудио 2: Dolby Digital Audio English 448 kbps 5.1 / 48 kHz / 640 kbps / DN -4dB
Общее
Полное имя : Smeshannye.2014.D.HDRip.2.18GB.avi.avi
Формат : AVI
Формат/Информация : Audio Video Interleave
Профиль формата : OpenDML
Размер файла : 2,16 Гбайт
Продолжительность : 1 ч. 57 м.
Общий поток : 2637 Кбит/сек
Программа кодирования : VirtualDubModRus 1.5.10.2 (build 2542/release)
Библиотека кодирования : VirtualDubMod build 2542/release
Видео
Идентификатор : 0
Формат : MPEG-4 Visual
Профиль формата : Advanced Simple@L5
Параметр BVOP формата : 2
Параметр QPel формата : Нет
Параметр GMC формата : Без точки перехода
Параметр матрицы формата : Default (MPEG)
Идентификатор кодека : XVID
Идентификатор кодека/Подсказка : XviD
Продолжительность : 1 ч. 57 м.
Битрейт : 1723 Кбит/сек
Ширина : 720 пикселей
Высота : 384 пикселя
Соотношение сторон : 1,85:1
Частота кадров : 23,976 кадра/сек
Цветовое пространство : YUV
Субдискретизация насыщенности : 4:2:0
Битовая глубина : 8 бит
Тип развёртки : Прогрессивная
Метод сжатия : С потерями
Бит/(Пиксели*Кадры) : 0.260
Размер потока : 1,41 Гбайт (65%)
Библиотека кодирования : XviD 1.2.1 (UTC 2008-12-04)
Аудио #1
Идентификатор : 1
Формат : AC-3
Формат/Информация : Audio Coding 3
Расширение режима : CM (complete main)
Параметр Endianness формата : Big
Идентификатор кодека : 2000
Продолжительность : 1 ч. 57 м.
Вид битрейта : Постоянный
Битрейт : 448 Кбит/сек
Каналы : 6 каналов
Расположение каналов : Front: L C R, Side: L R, LFE
Частота : 48,0 КГц
Битовая глубина : 16 бит
Метод сжатия : С потерями
Размер потока : 376 Мбайт (17%)
Выравнивание : Разделение по промежуткам
Продолжительность промежутка : 42 мс. (1,00 видеокадр)
Время предзагрузки промежутка : 500 мс.
Аудио #2
Идентификатор : 2
Формат : AC-3
Формат/Информация : Audio Coding 3
Расширение режима : CM (complete main)
Параметр Endianness формата : Big
Идентификатор кодека : 2000
Продолжительность : 1 ч. 57 м.
Вид битрейта : Постоянный
Битрейт : 448 Кбит/сек
Каналы : 6 каналов
Расположение каналов : Front: L C R, Side: L R, LFE
Частота : 48,0 КГц
Битовая глубина : 16 бит
Метод сжатия : С потерями
Размер потока : 376 Мбайт (17%)
Выравнивание : Разделение по промежуткам
Продолжительность промежутка : 42 мс. (1,00 видеокадр)
Время предзагрузки промежутка : 500 мс.




реклама партнёра


Вернуться к началу
 Профиль  
 
   Похожие торренты   Автор   Торрент   Размер 
В этой теме нет новых непрочитанных сообщений. Смешанные / Blended [комедия, 2014] Blu-ray 1080p, Dub+Sub [лицензия]

Dracon

40 | 14

34.29 ГБ

В этой теме нет новых непрочитанных сообщений. Смешанные / Blended [комедия, 2014] DVD5, Dub+Sub [лицензия]

Dracon

70 | 6

4.37 ГБ

В этой теме нет новых непрочитанных сообщений. Смешанные / Blended [комедия, 2014] BDRip 720p, Dub+Sub [лицензия]

Dracon

137 | 4

6.79 ГБ

В этой теме нет новых непрочитанных сообщений. Смешанные / Blended [комедия, 2014] BDRip 1080p, Dub+Sub [лицензия]

Dracon

507 | 29

10.19 ГБ

В этой теме нет новых непрочитанных сообщений. Смешанные / Blended [комедия, 2014] HDRip, Dub [iTunes]

Dracon

866 | 21

2.05 ГБ

В этой теме нет новых непрочитанных сообщений. Смешанные / Blended [комедия, 2014] HDRip, Dub [iTunes]

Dracon

2101 | 22

1.37 ГБ

В этой теме нет новых непрочитанных сообщений. Смешанные / Blended [комедия, 2014] BDRip 720p, Dub [iTunes]

Dracon

11 | 2

5.78 ГБ


Начать новую тему Ответить на тему  [ 1 сообщение ] 




Для Мосгорсуда, Роскомнадзора и рекламодателей:: mosgorsud-torrent[собачка]yandex.ru