Торрент файл
скачать торрент магнет ссылка Добавлен: 29 авг 2014, 11:25
Размер: 1.46 ГБ
Сидеров: 17
Личеров: 3
Статус: (salma3)
Автор

СообщениеДобавлено: 29 авг 2014, 11:25 

В сети
Супермодератор
Аватара пользователя
Дата регистрации:
15 фев 2012, 16:44
Возраст: 28
Спасибо: 6594 / 2145
Сообщения: 44275
Легко не сдаваться / Not Easily Broken

«Как восстановить отношения, которые зашли в тупик?»

Год выпуска: 2009
Жанр: драма, мелодрама
Режиссер: Билл Дьюк / Bill Duke

В ролях: Моррис Честнат, Тараджи П. Хенсон, Маив Куинлэн, Кевин Харт, Вуд Харрис, Эдди Сибриан, Дженифер Льюис, Найси Нэш, Джей Кэнон, Альберт Холл...

Описание: Дэйв Джонсон мечтал об игре в ведущей бейсбольной лиге, но травма определила его судьбу — стабильную, без взлетов и падений в качестве бейсбольного тренера и главы небольшого конструкторского бюро. А после 10 лет совместной жизни Дэйвом стали постоянно помыкать его успешная карьеристка жена Кларис и ее невыносимая мамаша Мэри. Кларис привыкла, что мир вращается вокруг нее, и совершенно слепа к истинным желаниям своего мужа, но автомобильная трагедия усугубляет ситуацию и взрывает назревающие семейные проблемы. Кларис получает серьезную травму и вынуждена сидеть в стенах дома. Мэри во всем винит Дэйва. А Дэйв вдруг обнаруживает, что терапевт жены — нежная и мягкая мать-одиночка Джулии — возбудила в нем отцовские чувства и желание обрести тихую семейную гавань…



Страна: США / Screen Gems, T.D. Jakes Ministries
Продолжительность: 01:35:35
Перевод: Профессиональный (многоголосый)

Файл
Качество: DVDRip
Формат файла: AVI
Видео кодек: XviD
Аудио кодек: AC3
Видео: 720x384 (1.85:1), XViD 1788 Кбит/сек / 25.000 fps / Бит/(Пиксели*Кадры) : 0.259
Аудио: AC3 384 kbps / 5.1 ch / 48 kHz русский

Общее
Полное имя : Legko.ne.zdavatsya.2009.P.DVDRip_[New-Team]_by_avproh.avi
Формат : AVI
Формат/Информация : Audio Video Interleave
Размер файла : 1,46 Гбайт
Продолжительность : 1 ч. 35 м.
Общий поток : 2181 Кбит/сек
Программа кодирования : VirtualDubMod 1.5.10.3 | http://www.virtualdub-fr.org || (build 2550/release)
Библиотека кодирования : VirtualDubMod build 2550/release

Видео
Идентификатор : 0
Формат : MPEG-4 Visual
Профиль формата : Advanced Simple@L5
Параметр BVOP формата : 1
Параметр QPel формата : Нет
Параметр GMC формата : Без точки перехода
Параметр матрицы формата : Выборочная
Идентификатор кодека : XVID
Идентификатор кодека/Подсказка : XviD
Продолжительность : 1 ч. 35 м.
Битрейт : 1788 Кбит/сек
Ширина : 720 пикселей
Высота : 384 пикселя
Соотношение сторон : 1,85:1
Частота кадров : 25,000 кадров/сек
Цветовое пространство : YUV
Субдискретизация насыщенности : 4:2:0
Битовая глубина : 8 бит
Тип развёртки : Прогрессивная
Метод сжатия : С потерями
Бит/(Пиксели*Кадры) : 0.259
Размер потока : 1,19 Гбайт (82%)
Библиотека кодирования : XviD 73

Аудио
Идентификатор : 1
Формат : AC-3
Формат/Информация : Audio Coding 3
Расширение режима : CM (complete main)
Параметр Endianness формата : Big
Идентификатор кодека : 2000
Продолжительность : 1 ч. 35 м.
Вид битрейта : Постоянный
Битрейт : 384 Кбит/сек
Каналы : 6 каналов
Расположение каналов : Front: L C R, Side: L R, LFE
Частота : 48,0 КГц
Битовая глубина : 16 бит
Метод сжатия : С потерями
Размер потока : 263 Мбайт (18%)
Выравнивание : Разделение по промежуткам
Продолжительность промежутка : 40 мс. (1,00 видеокадр)
Время предзагрузки промежутка : 500 мс.


Раздача от:


_________________
Проголосуй за трекер Открытый торрент трекер - RUS-MEDIA.ORG

Проголосуй Открытый торрент трекер - RUS-MEDIA.ORG



реклама партнёра


Вернуться к началу
 Профиль Отправить личное сообщение  
 
   Похожие торренты   Автор   Торрент   Размер 
В этой теме нет новых непрочитанных сообщений. Легко не сдаваться / Not Easily Broken [Мелодрама, драма, 2009] BDRip 1080p, Mvo

salma3

56 | 16

8.21 ГБ

В этой теме нет новых непрочитанных сообщений. Не отступать и не сдаваться / No Retreat, No Surrender [боевик, драма, криминал, 1986] BDRemux 1080р, Dvo

salma3

13 | 4

20.04 ГБ

В этой теме нет новых непрочитанных сообщений. Сломанные цветы / Broken Flowers [драма, мелодрама, комедия, 2005] HDRip, Mvo

salma3

101 | 31

1.45 ГБ

В этой теме нет новых непрочитанных сообщений. Сломанные цветы / Broken Flowers [драма, мелодрама, комедия, 2005] BDRip 720p, 2Mvo+Sub

salma3

8 | 17

6.32 ГБ

В этой теме нет новых непрочитанных сообщений. Сломанные цветы / Broken Flowers [драма, мелодрама, комедия, детектив, 2005] BDRip 1080p, 2Mvo+Sub

salma3

8 | 13

9.56 ГБ

В этой теме нет новых непрочитанных сообщений. Земные девушки легко доступны / Earth Girls Are Easy [фантастика, мелодрама, комедия, 1988] WEBRip 1080p, Mvo+Dvo+Avo+Sub

salma3

30 | 36

10.86 ГБ

В этой теме нет новых непрочитанных сообщений. Нарушая Запреты / Broken Vows (2016) DVDRip

salma3

14 | 1

1.92 ГБ


Начать новую тему Ответить на тему  [ 1 сообщение ] 




Для Мосгорсуда, Роскомнадзора и рекламодателей:: mosgorsud-torrent[собачка]yandex.ru