Торрент файл
скачать торрент магнет ссылка Добавлен: 29 авг 2014, 11:18
Размер: 1.46 ГБ
Сидеров: 24
Личеров: 6
Статус: (salma3)
Автор

СообщениеДобавлено: 29 авг 2014, 11:18 

Не в сети
Супермодератор
Аватара пользователя
Дата регистрации:
15 фев 2012, 16:44
Возраст: 27
Спасибо: 5139 / 2089
Сообщения: 17432
Огнепоклонники / Blue Smoke

«Когда на одной чаше весов – пламя страсти, а на другой всепоглощающий огонь…»

Год выпуска: 2007
Жанр: триллер, драма, мелодрама
Режиссер: Дэвид Карсон / David Carson

В ролях: Алисия Уитт, Скотт Бакула, Мэттью Сеттл, Талия Шайр, Эрик Кинлисайд, Джон Рирдон, Бенджамин Эйрс, Крис Фассбендер, Тэйлор Дофинаис, Дэвид Браун...

Описание:
Будучи в 11-летнем возрасте Рина стала свидетельницей пожара, который сравнял с землей семейную пиццерию. Это событие повлияло на выбор ее будущей профессии — она решила стать специалистом по расследованию причин воспламенения. И, сейчас, годы спустя, Рина возвращается в места своего детства, где встречает свою судьбу — местного плотника. Но их бурному роману мешает разгореться тень прошлого… Психопат, разрушивший их семейное дело, снова вторгается в жизнь Рины, чтобы разрушить ее благополучие. Выясняется, что маньяк обладает навязчивой идеей воспламенять все и всех, кто дорог Рине. В мгновение ей предстоит проявить весь свой детективный талант, чтобы выследить одержимого пироэффектами злодея, пока ее жизнь и любовь не сгорели синим пламенем…



Страна: США / Mandalay Television, Stephanie Germain Productions
Продолжительность: 01:31:34
Перевод: Профессиональный (многоголосый)

Файл
Качество: DVDRip
Формат файла: AVI
Видео кодек: XviD
Аудио кодек: AC3
Видео: 720x400 (16:9), XViD 1819 Кбит/сек / 25.000 fps / Бит/(Пиксели*Кадры) : 0.253
Аудио: AC3 448 kbps / 5.1 ch / 48 kHz русский

Общее
Полное имя : Ognepoklonniki.2007.P.DVDRip_[New-Team]_by_avproh.avi
Формат : AVI
Формат/Информация : Audio Video Interleave
Размер файла : 1,46 Гбайт
Продолжительность : 1 ч. 31 м.
Общий поток : 2277 Кбит/сек
Программа кодирования : VirtualDubMod 1.5.10.3 | http://www.virtualdub-fr.org || (build 2550/release)
Библиотека кодирования : VirtualDubMod build 2550/release

Видео
Идентификатор : 0
Формат : MPEG-4 Visual
Профиль формата : Advanced Simple@L5
Параметр BVOP формата : 1
Параметр QPel формата : Нет
Параметр GMC формата : Без точки перехода
Параметр матрицы формата : Выборочная
Идентификатор кодека : XVID
Идентификатор кодека/Подсказка : XviD
Продолжительность : 1 ч. 31 м.
Битрейт : 1819 Кбит/сек
Ширина : 720 пикселей
Высота : 400 пикселей
Соотношение сторон : 16:9
Частота кадров : 25,000 кадров/сек
Цветовое пространство : YUV
Субдискретизация насыщенности : 4:2:0
Битовая глубина : 8 бит
Тип развёртки : Прогрессивная
Метод сжатия : С потерями
Бит/(Пиксели*Кадры) : 0.253
Размер потока : 1,16 Гбайт (80%)
Библиотека кодирования : XviD 73

Аудио
Идентификатор : 1
Формат : AC-3
Формат/Информация : Audio Coding 3
Расширение режима : CM (complete main)
Параметр Endianness формата : Big
Идентификатор кодека : 2000
Продолжительность : 1 ч. 31 м.
Вид битрейта : Постоянный
Битрейт : 448 Кбит/сек
Каналы : 6 каналов
Расположение каналов : Front: L C R, Side: L R, LFE
Частота : 48,0 КГц
Битовая глубина : 16 бит
Метод сжатия : С потерями
Размер потока : 293 Мбайт (20%)
Выравнивание : Разделение по промежуткам
Продолжительность промежутка : 40 мс. (1,00 видеокадр)
Время предзагрузки промежутка : 500 мс.


Раздача от:


_________________



реклама партнёра


Вернуться к началу
 Профиль Отправить личное сообщение  
 
   Похожие торренты   Автор   Торрент   Размер 
В этой теме нет новых непрочитанных сообщений. Огнепоклонники / Blue Smoke [триллер, драма, мелодрама, 2007] DVDRip-AVC, Mvo

salma3

7 | 2

1.46 ГБ

В этой теме нет новых непрочитанных сообщений. Огнепоклонники / Blue Smoke [Триллер, драма, мелодрама, 2007] DVD5, Mvo+Sub [Лицензия]

salma3

4 | 3

4.36 ГБ

В этой теме нет новых непрочитанных сообщений. Liquid Smoke - Liquid Smoke (1970) [1994, Psychedelic, Acid, Blues, Hard Rock, MP3]

PriZraK

0 | 1

88.98 МБ

В этой теме нет новых непрочитанных сообщений. Священный дым / Holy Smoke [драма, 1999] DVDRip, 2Mvo

salma3

17 | 3

1.47 ГБ

В этой теме нет новых непрочитанных сообщений. Сорок оттенков грусти / Forty Shades of Blue [драма, мелодрама, музыка, 2004] DVDRip, Dvo

salma3

109 | 14

1.48 ГБ

В этой теме нет новых непрочитанных сообщений. Mick Blue Is One Lucky Bastard / Mick Blue Счастливчик (Mick Blue / Zero Tolerance) (Carter Cruise, Adriana Chechik, Anikka Albrite, Skin Diamond, Dahlia Sky) [2015 г., Gonzo , Interracial, Hardcore, Natural tits, DVDRip 396p]

friizze

0 | 6

1.39 ГБ

В этой теме нет новых непрочитанных сообщений. Ангелы падают / Angels Fall [Мелодрама, драма, триллер, 2007] DVDRip-AVC, Mvo+Sub

salma3

82 | 4

1.45 ГБ


Начать новую тему Ответить на тему  [ 1 сообщение ] 




Для Мосгорсуда, Роскомнадзора и рекламодателей:: mosgorsud-torrent[собачка]yandex.ru