Торрент файл
скачать торрент магнет ссылка Добавлен: 29 авг 2014, 11:15
Размер: 1.46 ГБ
Сидеров: 7
Личеров: 2
Статус: (salma3)
Автор

СообщениеДобавлено: 29 авг 2014, 11:15 

Не в сети
Супермодератор
Аватара пользователя
Дата регистрации:
15 фев 2012, 16:44
Возраст: 27
Спасибо: 5139 / 2090
Сообщения: 17432
Огнепоклонники / Blue Smoke

Год выпуска: 2007
Жанр: триллер, драма, мелодрама
Режиссер: Дэвид Карсон / David Carson

В ролях: Алисия Уитт, Скотт Бакула, Мэттью Сеттл, Талия Шайр, Эрик Кинлисайд, Джон Рирдон, Бенджамин Эйрс, Крис Фассбендер, Тэйлор Дофинаис, Дэвид Браун...

Описание:
Будучи в 11-летнем возрасте Рина стала свидетельницей пожара, который сравнял с землей семейную пиццерию. Это событие повлияло на выбор ее будущей профессии — она решила стать специалистом по расследованию причин воспламенения. И, сейчас, годы спустя, Рина возвращается в места своего детства, где встречает свою судьбу — местного плотника. Но их бурному роману мешает разгореться тень прошлого… Психопат, разрушивший их семейное дело, снова вторгается в жизнь Рины, чтобы разрушить ее благополучие. Выясняется, что маньяк обладает навязчивой идеей воспламенять все и всех, кто дорог Рине. В мгновение ей предстоит проявить весь свой детективный талант, чтобы выследить одержимого пироэффектами злодея, пока ее жизнь и любовь не сгорели синим пламенем…



Страна: США / Mandalay Television, Stephanie Germain Productions
Продолжительность: 01:31:34
Перевод: Профессиональный (многоголосый)

Файл
Качество: DVDRip-AVC
Формат файла: MKV
Видео кодек: MPEG-4 AVC
Аудио кодек: AC3
Видео: 720x572@1024x572 (16:9), MPEG-4 AVC 1826 Кбит/сек / 25.000 fps / Бит/(Пиксели*Кадры) : 0.177
Аудио: AC3 448 kbps / 5.1 ch / 48 kHz русский

Дополнительно: Фильм разбит на главы, как на оригинальном DVD диске.

Общее
Полное имя : Ognepoklonniki.2007.P.DVDRip-AVC_[New-Team]_by_avproh.mkv
Формат : Matroska
Версия формата : Version 4 / Version 2
Размер файла : 1,46 Гбайт
Продолжительность : 1 ч. 31 м.
Общий поток : 2276 Кбит/сек
Дата кодирования : UTC 2014-08-28 13:58:25
Программа кодирования : mkvmerge v7.1.0 ('Good Love') 64bit built on Jul 27 2014 13:06:55
Библиотека кодирования : libebml v1.3.0 + libmatroska v1.4.1
DURATION : 01:31:34.176000000
NUMBER_OF_FRAMES : 171693
NUMBER_OF_BYTES : 307673856
_STATISTICS_WRITING_APP : mkvmerge v7.1.0 ('Good Love') 64bit built on Jul 27 2014 13:06:55
_STATISTICS_WRITING_DATE_UTC : 2014-08-28 13:58:25
_STATISTICS_TAGS : BPS DURATION NUMBER_OF_FRAMES NUMBER_OF_BYTES

Видео
Идентификатор : 1
Формат : AVC
Формат/Информация : Advanced Video Codec
Профиль формата : High@L4.1
Параметр CABAC формата : Да
Параметр ReFrames формата : 8 кадров
Идентификатор кодека : V_MPEG4/ISO/AVC
Продолжительность : 1 ч. 31 м.
Битрейт : 1826 Кбит/сек
Ширина : 720 пикселей
Высота : 572 пикселя
Соотношение сторон : 16:9
Режим частоты кадров : Постоянный
Частота кадров : 25,000 кадров/сек
Цветовое пространство : YUV
Субдискретизация насыщенности : 4:2:0
Битовая глубина : 8 бит
Тип развёртки : Прогрессивная
Бит/(Пиксели*Кадры) : 0.177
Размер потока : 1,14 Гбайт (78%)
Библиотека кодирования : x264 core 130 r2273 b3065e6
Настройки программы : cabac=1 / ref=8 / deblock=1:-2:-1 / analyse=0x3:0x113 / me=umh / subme=10 / psy=1 / psy_rd=1.00:0.05 / mixed_ref=1 / me_range=32 / chroma_me=1 / trellis=2 / 8x8dct=1 / cqm=0 / deadzone=21,11 / fast_pskip=0 / chroma_qp_offset=-3 / threads=9 / lookahead_threads=1 / sliced_threads=0 / nr=0 / decimate=0 / interlaced=0 / bluray_compat=0 / constrained_intra=0 / bframes=8 / b_pyramid=2 / b_adapt=2 / b_bias=0 / direct=3 / weightb=1 / open_gop=0 / weightp=2 / keyint=250 / keyint_min=25 / scenecut=40 / intra_refresh=0 / rc=2pass / mbtree=0 / bitrate=1826 / ratetol=1.0 / qcomp=0.60 / qpmin=0 / qpmax=69 / qpstep=4 / cplxblur=20.0 / qblur=0.5 / ip_ratio=1.40 / pb_ratio=1.30 / aq=1:1.00
Язык : English
Default : Да
Forced : Нет

Аудио
Идентификатор : 2
Формат : AC-3
Формат/Информация : Audio Coding 3
Расширение режима : CM (complete main)
Параметр Endianness формата : Big
Идентификатор кодека : A_AC3
Продолжительность : 1 ч. 31 м.
Вид битрейта : Постоянный
Битрейт : 448 Кбит/сек
Каналы : 6 каналов
Расположение каналов : Front: L C R, Side: L R, LFE
Частота : 48,0 КГц
Битовая глубина : 16 бит
Метод сжатия : С потерями
Размер потока : 293 Мбайт (20%)
Язык : Russian
Default : Да
Forced : Нет

Меню
00:00:00.000 : en:00:00:00.000
00:08:51.000 : en:00:08:51.000
00:14:08.600 : en:00:14:08.600
00:17:58.800 : en:00:17:58.800
00:33:16.200 : en:00:33:16.200
00:40:51.000 : en:00:40:51.000
00:49:49.200 : en:00:49:49.200
00:55:20.400 : en:00:55:20.400
01:02:29.400 : en:01:02:29.400
01:12:26.400 : en:01:12:26.400
01:19:12.000 : en:01:19:12.000
01:30:33.600 : en:01:30:33.600


Раздача от:


_________________



реклама партнёра


Вернуться к началу
 Профиль Отправить личное сообщение  
 
   Похожие торренты   Автор   Торрент   Размер 
В этой теме нет новых непрочитанных сообщений. Огнепоклонники / Blue Smoke [триллер, драма, мелодрама, 2007] DVDRip, Mvo

salma3

24 | 6

1.46 ГБ

В этой теме нет новых непрочитанных сообщений. Огнепоклонники / Blue Smoke [Триллер, драма, мелодрама, 2007] DVD5, Mvo+Sub [Лицензия]

salma3

4 | 3

4.36 ГБ

В этой теме нет новых непрочитанных сообщений. Liquid Smoke - Liquid Smoke (1970) [1994, Psychedelic, Acid, Blues, Hard Rock, MP3]

PriZraK

0 | 1

88.98 МБ

В этой теме нет новых непрочитанных сообщений. Священный дым / Holy Smoke [драма, 1999] DVDRip, 2Mvo

salma3

17 | 3

1.47 ГБ

В этой теме нет новых непрочитанных сообщений. Сорок оттенков грусти / Forty Shades of Blue [драма, мелодрама, музыка, 2004] DVDRip, Dvo

salma3

109 | 14

1.48 ГБ

В этой теме нет новых непрочитанных сообщений. Mick Blue Is One Lucky Bastard / Mick Blue Счастливчик (Mick Blue / Zero Tolerance) (Carter Cruise, Adriana Chechik, Anikka Albrite, Skin Diamond, Dahlia Sky) [2015 г., Gonzo , Interracial, Hardcore, Natural tits, DVDRip 396p]

friizze

0 | 6

1.39 ГБ

В этой теме нет новых непрочитанных сообщений. Ангелы падают / Angels Fall [Мелодрама, драма, триллер, 2007] DVDRip-AVC, Mvo+Sub

salma3

82 | 4

1.45 ГБ


Начать новую тему Ответить на тему  [ 1 сообщение ] 




Для Мосгорсуда, Роскомнадзора и рекламодателей:: mosgorsud-torrent[собачка]yandex.ru