Торрент файл
скачать торрент магнет ссылка Добавлен: 27 авг 2014, 15:11
Размер: 1.46 ГБ
Сидеров: 343
Личеров: 12
Статус: (Dracon)
Автор

СообщениеДобавлено: 27 авг 2014, 15:11 

Не в сети
Зам. Админа
Аватара пользователя
Дата регистрации:
02 дек 2010, 12:39
Спасибо: 12461 / 214
Сообщения: 27968
«Leave everything behind»




Страна: Австралия / See-Saw Films

Жанр: драма, приключения, биография
Год выпуска: 2013
Продолжительность: 01:52:33

Перевод: Профессиональный (многоголосый)
Cубтитры: нет
Оригинальная аудиодорожка: нет

Режиссер: Джон Кёрран / John Curran

В ролях: Миа Васиковска, Адам Драйвер, Эмма Бут, Джессика Тоуви, Мелани Занетти, Райнер Бок, Роберт Колеби, Лили Перл, Кэрол Барнс, Брайан Пробетс...

Описание: Юная Робин решает в одиночку пересечь Австралию. В пути ее сопровождают лишь собака и четыре верблюда. Журнал «National Geographic», заинтересовавшись ее проектом, предлагает девушке писать путевые заметки и дает в сопровождение фотографа.



Качество: HDRip
Формат: AVI
Видео: 720x304 (2.35:1), XviD 1396 Кбит/сек / 24.000 fps / Бит/(Пиксели*Кадры) : 0.266
Аудио: Dolby Digital Audio Russian 448 kbps / 5.1 / 48 kHz

Общее
Полное имя : Tropy.2013.P.HDRip.1.46GB_[New-Team]_by_avproh.avi
Формат : AVI
Формат/Информация : Audio Video Interleave
Размер файла : 1,46 Гбайт
Продолжительность : 1 ч. 52 м.
Общий поток : 1853 Кбит/сек
Программа кодирования : VirtualDubModRus 1.5.10.2 (build 2542/release)
Библиотека кодирования : VirtualDubMod build 2542/release

Видео
Идентификатор : 0
Формат : MPEG-4 Visual
Профиль формата : Advanced Simple@L5
Параметр BVOP формата : 1
Параметр QPel формата : Нет
Параметр GMC формата : Без точки перехода
Параметр матрицы формата : Выборочная
Идентификатор кодека : XVID
Идентификатор кодека/Подсказка : XviD
Продолжительность : 1 ч. 52 м.
Битрейт : 1396 Кбит/сек
Ширина : 720 пикселей
Высота : 304 пикселя
Соотношение сторон : 2,35:1
Частота кадров : 24,000 кадра/сек
Цветовое пространство : YUV
Субдискретизация насыщенности : 4:2:0
Битовая глубина : 8 бит
Тип развёртки : Прогрессивная
Метод сжатия : С потерями
Бит/(Пиксели*Кадры) : 0.266
Размер потока : 1,10 Гбайт (75%)
Библиотека кодирования : XviD 73

Аудио
Идентификатор : 1
Формат : AC-3
Формат/Информация : Audio Coding 3
Расширение режима : CM (complete main)
Параметр Endianness формата : Big
Идентификатор кодека : 2000
Продолжительность : 1 ч. 52 м.
Вид битрейта : Постоянный
Битрейт : 448 Кбит/сек
Каналы : 6 каналов
Расположение каналов : Front: L C R, Side: L R, LFE
Частота : 48,0 КГц
Битовая глубина : 16 бит
Метод сжатия : С потерями
Размер потока : 361 Мбайт (24%)
Выравнивание : Разделение по промежуткам
Продолжительность промежутка : 42 мс. (1,00 видеокадр)
Время предзагрузки промежутка : 500 мс.




реклама партнёра


Вернуться к началу
 Профиль  
 
   Похожие торренты   Автор   Торрент   Размер 
В этой теме нет новых непрочитанных сообщений. Тропы / Tracks [драма, приключения, биография, 2013] BDRip 1080p, Mvo+Sub [лицензия]

Dracon

113 | 8

11 ГБ

В этой теме нет новых непрочитанных сообщений. Тропы / Tracks [драма, приключения, биография, 2013] BDRip 720p, Mvo+Sub [лицензия]

Dracon

90 | 3

6.14 ГБ

В этой теме нет новых непрочитанных сообщений. Тропы / Tracks [драма, приключения, биография, 2013] HDRip, mvo [Чистый звук]

Dracon

635 | 3

1.37 ГБ

В этой теме нет новых непрочитанных сообщений. Тропы / Tracks [драма, приключения, биография, 2013] HDRip, mvo [Чистый звук]

Dracon

399 | 8

2.05 ГБ

В этой теме нет новых непрочитанных сообщений. Тропы / Tracks [драма, приключения, биография, 2013] BDRip 720p, mvo [Чистый звук]

Dracon

2 | 2

5.16 ГБ

В этой теме нет новых непрочитанных сообщений. Распутин [Драма, биография, история, 2013] HDRip [лицензия]

Dracon

49 | 19

1.37 ГБ

В этой теме нет новых непрочитанных сообщений. Пятая власть / The Fifth Estate [Триллер, драма, биография, 2013] HDRip, Dub [Лицензия]

Dracon

715 | 8

2.05 ГБ


Начать новую тему Ответить на тему  [ 1 сообщение ] 




Для Мосгорсуда, Роскомнадзора и рекламодателей:: mosgorsud-torrent[собачка]yandex.ru