Торрент файл
скачать торрент магнет ссылка Добавлен: 27 авг 2014, 09:26
Размер: 2.28 ГБ
Сидеров: 31
Личеров: 2
Статус: (Dracon)
Автор

СообщениеДобавлено: 27 авг 2014, 09:26 

Не в сети
Зам. Админа
Аватара пользователя
Дата регистрации:
02 дек 2010, 12:39
Спасибо: 12460 / 214
Сообщения: 27968
Год выпуска: 2014
Жанр: Фантастика, боевик, приключения
Выпущено: США, Япония, Disruption Entertainment, Legendary Pictures, Toho Company, Warner Bros. Pictures
Режиссер: Гарет Эдвардс
В ролях: Аарон Тейлор-Джонсон, Кен Ватанабе, Элизабет Олсен, Жюльетт Бинош, Салли Хокинс, Дэвид Стрэтэйрн, Брайан Крэнстон, С.Дж. Адамс, Карсон Болд, Ричард Т. Джонс

О фильме: Человечество случайно разбудило гигантское древнее существо, что повлекло за собой ужасающие последствия…



Качество: HDRip (AVC)
Видео: MPEG-4 AVC, 1438 Кбит/с, 1024x426
Аудио: Русский (AC3, 6 ch, 384 Кбит/с), английский (AC3, 6 ch, 448 Кбит/с)
Продолжительность: 02:03:07
Перевод: Дублированный, любительский одноголосый

General
Unique ID : 170184636953954601291458627117853829397 (0x80085E6C31FECC0788CB34BA9A55E915)
Complete name : C:Godzilla.2014.HDRip.AVC.ExKinoRay.mkv
Format : Matroska
Format version : Version 2
File size : 2.28 GiB
Duration : 2h 3mn
Overall bit rate : 2 656 Kbps
Movie name : Godzilla 2014 from ExkinoRay
Encoded date : UTC 2014-08-26 20:01:58
Writing application : mkvmerge v4.9.1 ('Ich will') built on Jul 11 2011 23:53:15
Writing library : libebml v1.2.1 + libmatroska v1.1.1

Video
ID : 1
Format : AVC
Format/Info : Advanced Video Codec
Format profile : High@L4.1
Format settings, CABAC : Yes
Format settings, ReFrames : 9 frames
Codec ID : V_MPEG4/ISO/AVC
Duration : 2h 3mn
Bit rate : 1 438 Kbps
Width : 1 024 pixels
Height : 426 pixels
Display aspect ratio : 2.40:1
Frame rate mode : Constant
Frame rate : 23.976 fps
Color space : YUV
Chroma subsampling : 4:2:0
Bit depth : 8 bits
Scan type : Progressive
Bits/(Pixel*Frame) : 0.137
Stream size : 1.19 GiB (52%)
Title : Enigma-Vladislav71
Writing library : x264 core 116 r2044 392e762
Encoding settings : cabac=1 / ref=9 / deblock=1:-2:-2 / analyse=0x3:0x113 / me=umh / subme=10 / psy=1 / psy_rd=1.00:0.20 / mixed_ref=1 / me_range=32 / chroma_me=1 / trellis=2 / 8x8dct=1 / cqm=0 / deadzone=21,11 / fast_pskip=0 / chroma_qp_offset=-3 / threads=12 / sliced_threads=0 / nr=0 / decimate=0 / interlaced=0 / bluray_compat=0 / constrained_intra=0 / bframes=9 / b_pyramid=2 / b_adapt=2 / b_bias=0 / direct=3 / weightb=1 / open_gop=0 / weightp=2 / keyint=240 / keyint_min=23 / scenecut=40 / intra_refresh=0 / rc=2pass / mbtree=0 / bitrate=1438 / ratetol=1.0 / qcomp=0.60 / qpmin=0 / qpmax=69 / qpstep=4 / cplxblur=20.0 / qblur=0.5 / ip_ratio=1.40 / pb_ratio=1.30 / aq=1:1.00
Default : Yes
Forced : No

Audio #1
ID : 2
Format : AC-3
Format/Info : Audio Coding 3
Mode extension : CM (complete main)
Format settings, Endianness : Big
Codec ID : A_AC3
Duration : 2h 3mn
Bit rate mode : Constant
Bit rate : 384 Kbps
Channel(s) : 6 channels
Channel positions : Front: L C R, Side: L R, LFE
Sampling rate : 48.0 KHz
Bit depth : 16 bits
Compression mode : Lossy
Stream size : 338 MiB (14%)
Title : iTunes
Language : Russian
Default : Yes
Forced : No

Audio #2
ID : 3
Format : AC-3
Format/Info : Audio Coding 3
Mode extension : CM (complete main)
Format settings, Endianness : Big
Codec ID : A_AC3
Duration : 2h 3mn
Bit rate mode : Constant
Bit rate : 384 Kbps
Channel(s) : 6 channels
Channel positions : Front: L C R, Side: L R, LFE
Sampling rate : 48.0 KHz
Bit depth : 16 bits
Compression mode : Lossy
Stream size : 338 MiB (14%)
Title : VO
Language : Russian
Default : No
Forced : No

Audio #3
ID : 4
Format : AC-3
Format/Info : Audio Coding 3
Mode extension : CM (complete main)
Format settings, Endianness : Big
Codec ID : A_AC3
Duration : 2h 3mn
Bit rate mode : Constant
Bit rate : 448 Kbps
Channel(s) : 6 channels
Channel positions : Front: L C R, Side: L R, LFE
Sampling rate : 48.0 KHz
Bit depth : 16 bits
Compression mode : Lossy
Stream size : 395 MiB (17%)
Language : English
Default : No
Forced : No

Menu
00:00:00.000 : en:00:00:00.000
00:09:22.562 : en:00:09:22.562
00:19:03.225 : en:00:19:03.225
00:30:25.532 : en:00:30:25.532
00:39:10.098 : en:00:39:10.098
00:49:43.439 : en:00:49:43.439
00:59:27.189 : en:00:59:27.189
01:09:50.186 : en:01:09:50.186
01:19:11.246 : en:01:19:11.246
01:29:57.267 : en:01:29:57.267
01:40:14.759 : en:01:40:14.759
01:52:14.728 : en:01:52:14.728
01:56:10.088 : en:01:56:10.088





реклама партнёра


Вернуться к началу
 Профиль  
 
   Похожие торренты   Автор   Торрент   Размер 
В этой теме нет новых непрочитанных сообщений. Годзилла / Godzilla [фантастика, боевик, приключения, 2014] BDRip 1080p, Dub [iTunes]

Dracon

557 | 6

5.8 ГБ

В этой теме нет новых непрочитанных сообщений. Годзилла / Godzilla [фантастика, боевик, приключения, 2014] HDRip, Dub [Чистый звук]

salma3

1533 | 34

1.46 ГБ

В этой теме нет новых непрочитанных сообщений. Годзилла / Godzilla [фантастика, боевик, приключения, 2014] HDRip, dub [Чистый звук]

Dracon

1135 | 11

2.05 ГБ

В этой теме нет новых непрочитанных сообщений. Годзилла / Godzilla [фантастика, боевик, триллер, 2014] HDRip, Dub [iPad]

salma3

65 | 7

1.63 ГБ

В этой теме нет новых непрочитанных сообщений. Годзилла / Godzilla [Фантастика, боевик, приключения, 2014] BDRip 1080p, Avo

salma3

3 | 2

9.07 ГБ

В этой теме нет новых непрочитанных сообщений. Годзилла / Godzilla [фантастика, боевик, приключения, 2014] Blu-Ray, Dub+Sub [Лицензия | 3D-Video]

Dracon

64 | 13

41.43 ГБ

В этой теме нет новых непрочитанных сообщений. Годзилла / Godzilla [фантастика, боевик, приключения, 2014] BDRip 1080p, Dub+Sub [Лицензия Blu-ray CEE]

Dracon

5 | 2

13.51 ГБ


Начать новую тему Ответить на тему  [ 1 сообщение ] 




Для Мосгорсуда, Роскомнадзора и рекламодателей:: mosgorsud-torrent[собачка]yandex.ru