Торрент файл
скачать торрент магнет ссылка Добавлен: 25 авг 2014, 16:22
Размер: 1.37 ГБ
Сидеров: 69
Личеров: 12
Статус: (salma3)
Автор

СообщениеДобавлено: 25 авг 2014, 16:22 

В сети
Супермодератор
Аватара пользователя
Дата регистрации:
15 фев 2012, 16:44
Возраст: 27
Спасибо: 5136 / 2089
Сообщения: 17411
Точка прерывания / Termination Point

Год выпуска: 2007
Жанр: Фантастика, триллер
Режиссер: Джейсон Бурк

В ролях: Джейсон Пристли, Лу Даймонд Филлипс, Гарвин Санфорд, Гэри Хадсон, Стефани фон Пфеттен, Майкл Эклунд, Брэдли Страйкер, Эрин Карплак, Райан Бут, Майкл Беняер

Описание:
Сверхсекретный военный проект путешествий во времени срочно закрывается правительством когда выясняется, что эти перемещения способны вызвать глобальное уничтожение планеты. Но ведущий ученый таинственно исчезает, вместе с ним исчезает и готовый прототип устройства… Поиски не дают никакого результата. Когда его имя случайно всплывает в списках пассажиров рейса небольшой авиакомпании, то на захват бросаются все силы, и начинается смертельная погоня за самолетом, способным перемещаться не только в пространстве, но и во времени…



Страна: Канада
Производство: Cinetel Films, Eagle Pictures, Insight Film Studios
Продолжительность: 01:30:28
Перевод: Профессиональный [многоголосый]

Файл
Качество: DVDRip
Формат файла: AVI
Видео кодек: XviD
Аудио кодек: AC3
Видео: XviD, 1963 Кбит/с, 704х368
Аудио: АС3, 2 ch, 192 Кбит/с

Общее
Полное имя : D:залитьТочка прерывания.avi
Формат : AVI
Формат/Информация : Audio Video Interleave
Размер файла : 1,37 Гбайт
Продолжительность : 1 ч. 30 м.
Общий поток : 2164 Кбит/сек
Программа кодирования : VirtualDubMod 1.5.10.3 | http://www.virtualdub-fr.org || (build 2550/release)
Библиотека кодирования : VirtualDubMod build 2550/release
Видео
Идентификатор : 0
Формат : MPEG-4 Visual
Профиль формата : Advanced Simple@L5
Параметр BVOP формата : 2
Параметр QPel формата : Нет
Параметр GMC формата : Без точки перехода
Параметр матрицы формата : Default (MPEG)
Идентификатор кодека : XVID
Идентификатор кодека/Подсказка : XviD
Продолжительность : 1 ч. 30 м.
Битрейт : 1963 Кбит/сек
Ширина : 704 пикселя
Высота : 368 пикселей
Соотношение сторон : 1,913
Частота кадров : 23,976 кадра/сек
Цветовое пространство : YUV
Субдискретизация насыщенности : 4:2:0
Битовая глубина : 8 бит
Тип развёртки : Прогрессивная
Метод сжатия : С потерями
Бит/(Пиксели*Кадры) : 0.316
Размер потока : 1,24 Гбайт (91%)
Библиотека кодирования : XviD 1.2.1 (UTC 2008-12-04)
Аудио
Идентификатор : 1
Формат : AC-3
Формат/Информация : Audio Coding 3
Расширение режима : CM (complete main)
Параметр Endianness формата : Big
Идентификатор кодека : 2000
Продолжительность : 1 ч. 30 м.
Вид битрейта : Постоянный
Битрейт : 192 Кбит/сек
Каналы : 2 канала
Расположение каналов : Front: L R
Частота : 48,0 КГц
Битовая глубина : 16 бит
Метод сжатия : С потерями
Размер потока : 124 Мбайт (9%)
Выравнивание : Разделение по промежуткам
Продолжительность промежутка : 42 мс. (1,00 видеокадр)
Время предзагрузки промежутка : 500 мс.

Автор рипа:


_________________



реклама партнёра


Вернуться к началу
 Профиль Отправить личное сообщение  
 
   Похожие торренты   Автор   Торрент   Размер 
В этой теме нет новых непрочитанных сообщений. Черная точка / Black Point [Боевик, триллер, криминальная драма, 2001] DVDRip, Mvo

salma3

101 | 8

1.37 ГБ

В этой теме нет новых непрочитанных сообщений. Точка нанесения удара / Point of Impact [Боевик, триллер, драма, криминал, 1993] DVDRip, Avo

salma3

42 | 2

1.36 ГБ

В этой теме нет новых непрочитанных сообщений. Горячая точка / Dou fo sin / Flash Point [боевик, криминал, 2007] BDRip 720p, Avo

salma3

83 | 50

3.7 ГБ

В этой теме нет новых непрочитанных сообщений. Точка невозврата / Crossing Point [боевик, триллер, 2016] WEB-DLRip, Avo

salma3

2216 | 228

1.36 ГБ

В этой теме нет новых непрочитанных сообщений. Точка R / R-Point [Ужасы, боевик, триллер, драма, военный, 2004] BDRip 720p, Avo

salma3

7 | 2

6.44 ГБ

В этой теме нет новых непрочитанных сообщений. Точка отсчета / Point Doom [боевик, драма, криминал, 2000] DVDRip, Dvo

salma3

3 | 1

1.41 ГБ

В этой теме нет новых непрочитанных сообщений. Точка давления / Pressure Point [драма, 1962] SATRip, Dvo

salma3

12 | 5

1.37 ГБ


Начать новую тему Ответить на тему  [ 1 сообщение ] 




Для Мосгорсуда, Роскомнадзора и рекламодателей:: mosgorsud-torrent[собачка]yandex.ru