Торрент файл
скачать торрент магнет ссылка Добавлен: 24 авг 2014, 12:19
Размер: 1.46 ГБ
Сидеров: 20
Личеров: 4
Статус: (salma3)
Автор

СообщениеДобавлено: 24 авг 2014, 12:19 

В сети
Супермодератор
Аватара пользователя
Дата регистрации:
15 фев 2012, 16:44
Возраст: 27
Спасибо: 5143 / 2090
Сообщения: 17495
На живца / Bait

Год выхода: 2000
Жанр: Боевик, криминал, комедия
Режиссер: Антуан Фукуа

В ролях: Джейми Фокс, Дэвид Морс, Роберт Пасторелли, Даг Хатчисон, Кимберли Элиз, Дэвид Пэймер, Майк Еппс, Джейми Кеннеди, Нестор Серрано, Кирк Асеведо

О фильме:
Золотой запас США охраняется сложнейшей компьютерной системой безопасности. Именно ее удалось взломать неизвестному хакеру. Охрана убита, золото исчезло. Один из преступников, спрятавший добычу, умирает в тюремной камере. Его сокамерника, мелкого воришкуЭлвина, выпускают из тюрьмы и вручают 11,500 $ на "карманные расходы". Он подозревает, что стал наживкой в хитроумной и беспощадной игре спецслужб, которые ищут таинственного хакера-убийцу.



Страна: США, Канада, Австралия
Продолжительность: 01:59:09
Перевод: Авторский (одноголосый) [А.Гаврилов]

Файл
Качество: WEB-DLRip
Формат файла: AVI
Видео кодек: XviD
Аудио кодек: AC3
Видео: 720x304, 23.976 fps, 1556 kbps
Звук: AC-3, 2 ch, 48.0 khz, 192.0 kbps

Общее
Полное имя : Na.Jivca.2000.WEB-DLRip.avi
Формат : AVI
Формат/Информация : Audio Video Interleave
Размер файла : 1,46 Гбайт
Продолжительность : 1 ч. 59 м.
Общий поток : 1757 Кбит/сек
Программа кодирования : VirtualDubMod 1.5.10.2 (build 2542/release)
Библиотека кодирования : VirtualDubMod build 2542/release

Видео
Идентификатор : 0
Формат : MPEG-4 Visual
Профиль формата : Advanced Simple@L5
Параметр BVOP формата : 1
Параметр QPel формата : Нет
Параметр GMC формата : Без точки перехода
Параметр матрицы формата : Выборочная
Идентификатор кодека : XVID
Идентификатор кодека/Подсказка : XviD
Продолжительность : 1 ч. 59 м.
Битрейт : 1556 Кбит/сек
Ширина : 720 пикс.
Высота : 304 пикс.
Соотношение сторон : 2,35:1
Частота кадров : 23,976 кадр/сек
Цветовое пространство : YUV
Подвыборка цветности : 4:2:0
Битовая глубина : 8 бит
Тип развёртки : Прогрессивная
Метод сжатия : С потерями
Бит/(Пиксели*Кадры) : 0.296
Размер потока : 1,29 Гбайт (89%)
Библиотека кодирования : XviD 73

Аудио
Идентификатор : 1
Формат : AC-3
Формат/Информация : Audio Coding 3
Расширение режима : CM (complete main)
Идентификатор кодека : 2000
Продолжительность : 1 ч. 59 м.
Вид битрейта : Постоянный
Битрейт : 192 Кбит/сек
Канал(ы) : 2 канала(ов)
Расположение каналов : Front: L R
Частота : 48,0 КГц
Битовая глубина : 16 бит
Метод сжатия : С потерями
Размер потока : 164 Мбайт (11%)
Выравнивание : Разделение по промежуткам
Продолжительность промежутка : 42 мс. (1,00 видеокадр)
Время предзагрузки промежутка : 500 ms


Релиз от: Leon-masl


_________________



реклама партнёра


Вернуться к началу
 Профиль Отправить личное сообщение  
 
   Похожие торренты   Автор   Торрент   Размер 
В этой теме нет новых непрочитанных сообщений. На живца / Bait [Боевик, триллер, комедия, криминал, 2000] WEB-DL 720р, Dub+Avo+Sub

salma3

179 | 41

4.36 ГБ

В этой теме нет новых непрочитанных сообщений. Братья Блюз 2000 / Blues Brothers 2000 [боевик, комедия, криминал, музыка, 1998] Blu-ray 1080p, Mvo+Sub

salma3

11 | 7

35.86 ГБ

В этой теме нет новых непрочитанных сообщений. Супершпион / Gun Shy [мелодрама, комедия, криминал, 2000] WEB-DLRip, Dvo

salma3

105 | 27

1.46 ГБ

В этой теме нет новых непрочитанных сообщений. Ангелы Чарли / Charlie's Angels [боевик, комедия, приключения, криминал, 2000] Blu-Ray, Dub+Mvo+Avo+Sub

salma3

1 | 4

29.82 ГБ

В этой теме нет новых непрочитанных сообщений. Мисс Конгениальность / Miss Congeniality [Боевик, комедия, криминал, 2000] BDRip 720p, Dub+Avo+Sub

salma3

3 | 6

6.94 ГБ

В этой теме нет новых непрочитанных сообщений. Мисс Конгениальность / Miss Congeniality [Боевик, комедия, криминал, 2000] BDRemux 1080p, Dub+Avo+Sub

salma3

10 | 3

19.81 ГБ

В этой теме нет новых непрочитанных сообщений. Каффс / Kuffs [Боевик, комедия, криминал, 1992] WEB-DLRip, Dvo

salma3

43 | 0

1.46 ГБ


Начать новую тему Ответить на тему  [ 1 сообщение ] 




Для Мосгорсуда, Роскомнадзора и рекламодателей:: mosgorsud-torrent[собачка]yandex.ru