Торрент файл
скачать торрент магнет ссылка Добавлен: 22 авг 2014, 15:36
Размер: 2.05 ГБ
Сидеров: 2484
Личеров: 10
Автор

СообщениеДобавлено: 22 авг 2014, 15:36 

Не в сети
Зам. Админа
Аватара пользователя
Дата регистрации:
02 дек 2010, 12:39
Спасибо: 12458 / 214
Сообщения: 27968

Год выхода: 2014
Жанр: фэнтези, боевик, мелодрама, приключения, семейный
Режиссер: Роберт Стромберг
В ролях:Анджелина Джоли, Эль Фаннинг, Шарлто Копли, Сэм Райли, Имелда Стонтон, Джуно Темпл, Лесли Мэнвилл, Брентон Туэйтс, Кеннет Крэнэм, Изобель Моллой

О фильме:
Юная волшебница Малефисента вела уединенную жизнь в зачарованном лесу, окруженная сказочными существами, но однажды все изменилось… В её мир вторглись люди, которые принесли с собой разрушение и хаос, и Малефисенте пришлось встать на защиту своих подданных, призвав на помощь могущественные тёмные силы. В пылу борьбы Малефисента наложила страшное заклятие на новорожденную дочь короля, прекрасную Аврору. Но, наблюдая за тем, как растет маленькая принцесса, Малефисента начинает сомневаться в правильности своего поступка — ведь, возможно, именно Аврора может вдохнуть новую жизнь в волшебное лесное царство.


Выпущено: США
Продолжительность: 01:37:27
Озвучивание: Дублированное [Чистый звук] Официальный

Формат: MKV
Качество: DVDRip-AVC
Видео: 2366 kb/s, 720x356@852x356
Аудио: Russian: AC3, 256 Kb/s (2 ch) / English: AC3, 384 Kb/s (6 ch)
Субтитры: Russian, English

Семпл

Format : Matroska
Format version : Version 4 / Version 2
File size : 2.05 GiB
Duration : 1h 37mn
Overall bit rate : 3 008 Kbps
Encoded date : UTC 2014-08-19 21:48:15
Writing application : mkvmerge v6.1.0 ('Old Devil') built on Mar 4 2013 09:10:42
Writing library : libebml v1.3.0 + libmatroska v1.4.0
DURATION : 01:27:44.629000000
NUMBER_OF_FRAMES : 664
NUMBER_OF_BYTES : 18680
_STATISTICS_WRITING_APP : mkvmerge v7.1.0 ('Good Love') 64bit built on Jul 27 2014 13:06:55
_STATISTICS_WRITING_DATE_UTC : 2014-08-19 18:21:59
_STATISTICS_TAGS : BPS DURATION NUMBER_OF_FRAMES NUMBER_OF_BYTES

Video
ID : 1
Format : AVC
Format/Info : Advanced Video Codec
Format profile : High@L4.1
Format settings, CABAC : Yes
Format settings, ReFrames : 9 frames
Codec ID : V_MPEG4/ISO/AVC
Duration : 1h 37mn
Bit rate : 2 366 Kbps
Width : 720 pixels
Height : 356 pixels
Display aspect ratio : 2.40:1
Original display aspect ratio : 2.40:1
Frame rate : 29.970 fps
Color space : YUV
Chroma subsampling : 4:2:0
Bit depth : 8 bits
Scan type : Progressive
Bits/(Pixel*Frame) : 0.308
Stream size : 1.57 GiB (77%)
Writing library : x264 core 142 r2431 ac76440
Encoding settings : cabac=1 / ref=9 / deblock=1:-3:-3 / analyse=0x3:0x133 / me=umh / subme=11 / psy=1 / psy_rd=1.00:0.15 / mixed_ref=1 / me_range=32 / chroma_me=1 / trellis=2 / 8x8dct=1 / cqm=0 / deadzone=21,11 / fast_pskip=0 / chroma_qp_offset=-3 / threads=8 / lookahead_threads=1 / sliced_threads=0 / nr=0 / decimate=0 / interlaced=0 / bluray_compat=0 / constrained_intra=0 / bframes=9 / b_pyramid=2 / b_adapt=2 / b_bias=0 / direct=3 / weightb=1 / open_gop=0 / weightp=2 / keyint=300 / keyint_min=29 / scenecut=40 / intra_refresh=0 / rc_lookahead=60 / rc=2pass / mbtree=1 / bitrate=2366 / ratetol=1.0 / qcomp=0.70 / qpmin=0 / qpmax=69 / qpstep=4 / cplxblur=20.0 / qblur=0.5 / vbv_maxrate=50000 / vbv_bufsize=62500 / nal_hrd=none / filler=0 / ip_ratio=1.40 / aq=1:1.00
Language : English
Default : Yes
Forced : No
DURATION : 01:37:27.308000000
NUMBER_OF_FRAMES : 175244
NUMBER_OF_BYTES : 1729216916
_STATISTICS_WRITING_APP : mkvmerge v7.1.0 ('Good Love') 64bit built on Jul 27 2014 13:06:55
_STATISTICS_WRITING_DATE_UTC : 2014-08-19 18:21:59
_STATISTICS_TAGS : BPS DURATION NUMBER_OF_FRAMES NUMBER_OF_BYTES

Audio #1
ID : 2
Format : AC-3
Format/Info : Audio Coding 3
Mode extension : CM (complete main)
Format settings, Endianness : Big
Codec ID : A_AC3
Duration : 1h 37mn
Bit rate mode : Constant
Bit rate : 256 Kbps
Channel(s) : 2 channels
Channel positions : Front: L R
Sampling rate : 48.0 KHz
Bit depth : 16 bits
Compression mode : Lossy
Stream size : 178 MiB (9%)
Language : Russian
Default : Yes
Forced : No
DURATION : 01:37:27.328000000
NUMBER_OF_FRAMES : 182729
NUMBER_OF_BYTES : 280671744
_STATISTICS_WRITING_APP : mkvmerge v7.1.0 ('Good Love') 64bit built on Jul 27 2014 13:06:55
_STATISTICS_WRITING_DATE_UTC : 2014-08-19 18:21:59
_STATISTICS_TAGS : BPS DURATION NUMBER_OF_FRAMES NUMBER_OF_BYTES

Audio #2
ID : 3
Format : AC-3
Format/Info : Audio Coding 3
Mode extension : CM (complete main)
Format settings, Endianness : Big
Codec ID : A_AC3
Duration : 1h 37mn
Bit rate mode : Constant
Bit rate : 384 Kbps
Channel(s) : 6 channels
Channel positions : Front: L C R, Side: L R, LFE
Sampling rate : 48.0 KHz
Bit depth : 16 bits
Compression mode : Lossy
Stream size : 268 MiB (13%)
Language : English
Default : No
Forced : No

Text #1
ID : 4
Format : UTF-8
Codec ID : S_TEXT/UTF8
Codec ID/Info : UTF-8 Plain Text
Language : Russian
Default : No
Forced : No

Text #2
ID : 5
Format : UTF-8
Codec ID : S_TEXT/UTF8
Codec ID/Info : UTF-8 Plain Text
Language : English
Default : No
Forced : No

Menu
00:00:00.000 : en:Chapter 01
00:08:07.603 : en:Chapter 02
00:16:14.640 : en:Chapter 03
00:24:22.160 : en:Chapter 04
00:32:29.314 : en:Chapter 05
00:40:36.767 : en:Chapter 06
00:48:43.954 : en:Chapter 07
00:56:50.990 : en:Chapter 08
01:04:58.477 : en:Chapter 09
01:13:05.664 : en:Chapter 10
01:21:12.951 : en:Chapter 11
01:29:20.355 : en:Chapter 12




реклама партнёра


Вернуться к началу
 Профиль  
 
   Похожие торренты   Автор   Торрент   Размер 
В этой теме нет новых непрочитанных сообщений. Малефисента / Maleficent [фэнтези, боевик, мелодрама, приключения, семейный, 2014] DVDRip, dub [Чистый звук]

Dracon

5403 | 39

1.46 ГБ

В этой теме нет новых непрочитанных сообщений. Малефисента / Maleficent [фэнтези, боевик, мелодрама, приключения, семейный, 2014] WEB-DL 720p, Dub [iTunes]

Dracon

667 | 12

3.19 ГБ

В этой теме нет новых непрочитанных сообщений. Малефисента / Maleficent [фэнтези, боевик, мелодрама, приключения, семейный, 2014] WEB-DLRip, Dub [iTunes]

Dracon

133 | 3

1.46 ГБ

В этой теме нет новых непрочитанных сообщений. Малефисента / Maleficent [фэнтези, боевик, мелодрама, приключения, семейный, 2014] Blu-ray 1080p, Dub+Sub [лицензия]

Dracon

107 | 33

32.5 ГБ

В этой теме нет новых непрочитанных сообщений. Малефисента / Maleficent [фэнтези, боевик, мелодрама, приключения, семейный, 2014] BDRip 720p, Dub+Sub [лицензия]

Dracon

1632 | 59

4.36 ГБ

В этой теме нет новых непрочитанных сообщений. Малефисента / Maleficent [фэнтези, боевик, мелодрама, приключения, семейный, 2014] BDRip 1080p, Dub+Sub [iTunes]

Dracon

56 | 4

7.91 ГБ

В этой теме нет новых непрочитанных сообщений. Малефисента / Maleficent [фэнтези, боевик, мелодрама, приключения, семейный, 2014] BDRip 1080p, Dub+Sub [лицензия | 3D-Video]

Dracon

725 | 37

5.8 ГБ


Начать новую тему Ответить на тему  [ 1 сообщение ] 




Для Мосгорсуда, Роскомнадзора и рекламодателей:: mosgorsud-torrent[собачка]yandex.ru