Торрент файл
скачать торрент магнет ссылка Добавлен: 21 авг 2014, 15:16
Размер: 2.17 ГБ
Сидеров: 16
Личеров: 4
Статус: (salma3)
Автор

СообщениеДобавлено: 21 авг 2014, 15:16 

Не в сети
Супермодератор
Аватара пользователя
Дата регистрации:
15 фев 2012, 16:44
Возраст: 28
Спасибо: 6585 / 2144
Сообщения: 44094
Проект X: Дорвались / Project X

Год выпуска: 2012
Жанр: комедия, криминал
Режиссер: Нима Нуризаде

В ролях: Томас Манн, Оливер Купер, Джонатан Даниэль Браун, Дакс Флэйм, Кирби Блисс Блэнтон, Брэйди Эндер, Ник Нервис, Алексис Кнапп, Майлз Теллер, Питер Маккензи

Описание:
Сюжет фильма рассказывает историю трех поначалу никому не известных старшеклассников, которые пытаются заявить о себе. Их задумка выглядит вполне невинно: надо просто организовать незабываемую вечеринку… но к такому они готовы не были. Молва разлетается слишком быстро, рушатся мечты, уже испорчена репутация, но одновременно зарождаются легенды.



Страна: США
Продолжительность: 01:27:53
Перевод: Профессиональный (полное дублирование)
субтитры: русские, английские

Файл
Качество: BDRip-AVC
Формат файла: MKV
Видео кодек: H.264
Аудио кодек: AAC
Видео: 1024x576 (16:9), 23.976 fps, AVC (H.264), High@L4.1 ~2703 kbps, 0.191 bit/pixel
Аудио #1: Русский: 48 kHz, AC3 Dolby Digital, 3/2 (L,C,R,l,r) + LFE ch, ~384 kbps [полное дублирование]
Аудио #2: Английский: 48 kHz, AC3 Dolby Digital, 3/2 (L,C,R,l,r) + LFE ch, ~384 kbps [Оригинал]

Общее
Формат : Matroska
Версия формата : Version 4 / Version 2
Размер файла : 2,17 Гбайт
Продолжительность : 1 ч. 27 м.
Общий поток : 3541 Кбит/сек
Название фильма : Project X 2012 Theatrical Cut
Дата кодирования : UTC 2014-07-12 12:28:49
Программа кодирования : mkvmerge v6.1.0 ('Old Devil') built on Mar 4 2013 09:10:42
Библиотека кодирования : libebml v1.3.0 + libmatroska v1.4.0

Видео
Идентификатор : 1
Формат : AVC
Формат/Информация : Advanced Video Codec
Профиль формата : High@L4.1
Параметр CABAC формата : Да
Параметр ReFrames формата : 13 кадров
Идентификатор кодека : V_MPEG4/ISO/AVC
Продолжительность : 1 ч. 27 м.
Битрейт : 2703 Кбит/сек
Ширина : 1024 пикселя
Высота : 576 пикселей
Соотношение сторон : 16:9
Режим частоты кадров : Постоянный
Частота кадров : 23,976 кадра/сек
Цветовое пространство : YUV
Субдискретизация насыщенности : 4:2:0
Битовая глубина : 8 бит
Тип развёртки : Прогрессивная
Бит/(Пиксели*Кадры) : 0.191
Размер потока : 1,66 Гбайт (76%)
Заголовок : BDRip-AVC
Библиотека кодирования : x264 core 125 r2200 999b753
Настройки программы : cabac=1 / ref=13 / deblock=1:-1:-1 / analyse=0x3:0x133 / me=umh / subme=10 / psy=1 / psy_rd=1.00:0.05 / mixed_ref=1 / me_range=32 / chroma_me=1 / trellis=2 / 8x8dct=1 / cqm=0 / deadzone=21,11 / fast_pskip=1 / chroma_qp_offset=-3 / threads=12 / lookahead_threads=2 / sliced_threads=0 / nr=0 / decimate=1 / interlaced=0 / bluray_compat=0 / constrained_intra=0 / bframes=13 / b_pyramid=2 / b_adapt=2 / b_bias=0 / direct=1 / weightb=1 / open_gop=0 / weightp=2 / keyint=240 / keyint_min=22 / scenecut=40 / intra_refresh=0 / rc_lookahead=60 / rc=crf / mbtree=0 / crf=19.7 / qcomp=0.65 / qpmin=0 / qpmax=40 / qpstep=4 / vbv_maxrate=50000 / vbv_bufsize=62500 / crf_max=0.0 / nal_hrd=none / ip_ratio=1.40 / pb_ratio=1.25 / aq=1:0.80
Язык : English
Default : Да
Forced : Нет
Основные цвета : BT.709
Характеристики трансфера : BT.709
Коэффициенты матрицы : BT.709

Аудио #1
Идентификатор : 2
Формат : AC-3
Формат/Информация : Audio Coding 3
Расширение режима : CM (complete main)
Параметр Endianness формата : Big
Идентификатор кодека : A_AC3
Продолжительность : 1 ч. 27 м.
Вид битрейта : Постоянный
Битрейт : 384 Кбит/сек
Каналы : 6 каналов
Расположение каналов : Front: L C R, Side: L R, LFE
Частота : 48,0 КГц
Битовая глубина : 16 бит
Метод сжатия : С потерями
Размер потока : 241 Мбайт (11%)
Заголовок : Dub
Язык : Russian
Default : Да
Forced : Нет

Аудио #2
Идентификатор : 3
Формат : AC-3
Формат/Информация : Audio Coding 3
Расширение режима : CM (complete main)
Параметр Endianness формата : Big
Идентификатор кодека : A_AC3
Продолжительность : 1 ч. 27 м.
Вид битрейта : Постоянный
Битрейт : 384 Кбит/сек
Каналы : 6 каналов
Расположение каналов : Front: L C R, Side: L R, LFE
Частота : 48,0 КГц
Битовая глубина : 16 бит
Метод сжатия : С потерями
Размер потока : 241 Мбайт (11%)
Заголовок : Original
Язык : English
Default : Нет
Forced : Нет

Текст #1
Идентификатор : 4
Формат : UTF-8
Идентификатор кодека : S_TEXT/UTF8
Идентификатор кодека/Информация : UTF-8 Plain Text
Заголовок : Forced
Язык : Russian
Default : Да
Forced : Нет

Текст #2
Идентификатор : 5
Формат : UTF-8
Идентификатор кодека : S_TEXT/UTF8
Идентификатор кодека/Информация : UTF-8 Plain Text
Заголовок : Full
Язык : Russian
Default : Нет
Forced : Нет

Текст #3
Идентификатор : 6
Формат : UTF-8
Идентификатор кодека : S_TEXT/UTF8
Идентификатор кодека/Информация : UTF-8 Plain Text
Заголовок : Full SDH
Язык : English
Default : Нет
Forced : Нет

Меню
00:00:00.000 : en:00:00:00.000
00:10:34.425 : en:00:10:34.425
00:19:53.776 : en:00:19:53.776
00:30:14.062 : en:00:30:14.062
00:40:10.950 : en:00:40:10.950
00:51:16.240 : en:00:51:16.240
01:00:56.403 : en:01:00:56.403
01:11:22.320 : en:01:11:22.320
01:19:29.765 : en:01:19:29.765


_________________
Проголосуй за трекер Открытый торрент трекер - RUS-MEDIA.ORG

Проголосуй Открытый торрент трекер - RUS-MEDIA.ORG



реклама партнёра


Вернуться к началу
 Профиль Отправить личное сообщение  
 
   Похожие торренты   Автор   Торрент   Размер 
В этой теме нет новых непрочитанных сообщений. Междоусобный проект / Смертельный проект / The Internecine Project [Боевик, триллер, 1974] BDRip 1080p, Avo

salma3

74 | 32

5.58 ГБ

В этой теме нет новых непрочитанных сообщений. Мой научный проект / My Science Project [фантастика, боевик, комедия, приключения, 1985] BDRip, Mvo

salma3

23 | 4

1.46 ГБ

В этой теме нет новых непрочитанных сообщений. Мой научный проект / My Science Project [фантастика, боевик, комедия, приключения, 1985] BDRip 720p, Mvo

salma3

2 | 1

4.66 ГБ

В этой теме нет новых непрочитанных сообщений. Проект зло / P.O.E. Project of Evil [ужасы, 2012] HDRip, Avo

salma3

267 | 18

1.37 ГБ

В этой теме нет новых непрочитанных сообщений. Проект Ларами / The Laramie Project [драма, криминал, 2002] WEB-DLRip, Mvo

salma3

69 | 25

1.45 ГБ

В этой теме нет новых непрочитанных сообщений. Манхэттенский проект / The Manhattan Project [фантастика, триллер, 1986] BDRip 720p, Mvo

salma3

6 | 3

7.94 ГБ

В этой теме нет новых непрочитанных сообщений. Проект: Альф / Project: Alf [комедия, 1996] DVDRip, Dvo

salma3

21 | 6

1.45 ГБ


Начать новую тему Ответить на тему  [ 1 сообщение ] 




Для Мосгорсуда, Роскомнадзора и рекламодателей:: mosgorsud-torrent[собачка]yandex.ru