Торрент файл
скачать торрент магнет ссылка Добавлен: 20 авг 2014, 15:40
Размер: 1.46 ГБ
Сидеров: 403
Личеров: 4
Статус: (salma3)
Автор

СообщениеДобавлено: 20 авг 2014, 15:40 

Не в сети
Супермодератор
Аватара пользователя
Дата регистрации:
15 фев 2012, 16:44
Возраст: 27
Спасибо: 5146 / 2090
Сообщения: 17514
Одна встреча / Une rencontre

Год выпуска: 2014
Жанр: драма, мелодрама
Режиссер: Лиза Азуэлос

В ролях: Софи Марсо, Франсуа Клюзе, Лиза Азуэлос, Александр Астье, Артур Бензакен, Джонатан Коэн, Нильс Шнайдер, Стефани Мурат, Оливия Коте, Сайрус Шахиди

Описание:
Случайная встреча семьянина с красивой женщиной порождает взаимное притяжение между ними…



Страна: Франция
Продолжительность: 01:18:40
Перевод: Профессиональный (полное дублирование) [Лицензия]

Файл
Качество: DVDRip-AVC
Формат файла: MKV
Видео кодек: H.264
Аудио кодек: AC3
Видео: 720x428@1024x428 (2,40:1), 25,000 fps, AVC (х264), High@L4.1, ~ 2200 kbps avg, 0.286bit/pixel
Аудио: 48.0 kHz, AC3, ( Front: L C R, Side: L R, LFE) , 6 ch ~448Kbps avg

Общее
Уникальный идентификатор : 195058972864810084822877245525774445100 (0x92BEFDDE7D66026B9049983E5A2E2A2C)
Полное имя : D:\Downloads\Odna.Vstrecha.2014.D.DVDRip-AVC_[New-Team]_by_avproh.mkv
Формат : Matroska
Версия формата : Version 2
Размер файла : 1,46 Гбайт
Продолжительность : 1 ч. 18 м.
Общий поток : 2648 Кбит/сек
Дата кодирования : UTC 2014-08-19 16:46:17
Программа кодирования : mkvmerge v6.1.0 ('Old Devil') built on Mar 4 2013 09:10:42
Библиотека кодирования : libebml v1.3.0 + libmatroska v1.4.0

Видео
Идентификатор : 1
Формат : AVC
Формат/Информация : Advanced Video Codec
Профиль формата : High@L4.1
Параметр CABAC формата : Да
Параметр ReFrames формата : 8 кадров
Идентификатор кодека : V_MPEG4/ISO/AVC
Продолжительность : 1 ч. 18 м.
Битрейт : 2200 Кбит/сек
Ширина : 720 пикселей
Высота : 428 пикселей
Соотношение сторон : 2,40:1
Режим частоты кадров : Постоянный
Частота кадров : 25,000 кадров/сек
Цветовое пространство : YUV
Субдискретизация насыщенности : 4:2:0
Битовая глубина : 8 бит
Тип развёртки : Прогрессивная
Бит/(Пиксели*Кадры) : 0.286
Размер потока : 1,18 Гбайт (81%)
Библиотека кодирования : x264 core 130 r2273 b3065e6
Настройки программы : cabac=1 / ref=8 / deblock=1:-2:-1 / analyse=0x3:0x113 / me=umh / subme=10 / psy=1 / psy_rd=1.00:0.05 / mixed_ref=1 / me_range=32 / chroma_me=1 / trellis=2 / 8x8dct=1 / cqm=0 / deadzone=21,11 / fast_pskip=0 / chroma_qp_offset=-3 / threads=9 / lookahead_threads=1 / sliced_threads=0 / nr=0 / decimate=0 / interlaced=0 / bluray_compat=0 / constrained_intra=0 / bframes=8 / b_pyramid=2 / b_adapt=2 / b_bias=0 / direct=3 / weightb=1 / open_gop=0 / weightp=2 / keyint=250 / keyint_min=25 / scenecut=40 / intra_refresh=0 / rc=2pass / mbtree=0 / bitrate=2200 / ratetol=1.0 / qcomp=0.60 / qpmin=0 / qpmax=69 / qpstep=4 / cplxblur=20.0 / qblur=0.5 / ip_ratio=1.40 / pb_ratio=1.30 / aq=1:1.00
Default : Да
Forced : Нет

Аудио
Идентификатор : 2
Формат : AC-3
Формат/Информация : Audio Coding 3
Расширение режима : CM (complete main)
Параметр Endianness формата : Big
Идентификатор кодека : A_AC3
Продолжительность : 1 ч. 18 м.
Вид битрейта : Постоянный
Битрейт : 448 Кбит/сек
Каналы : 6 каналов
Расположение каналов : Front: L C R, Side: L R, LFE
Частота : 48,0 КГц
Битовая глубина : 16 бит
Метод сжатия : С потерями
Размер потока : 252 Мбайт (17%)
Default : Да
Forced : Нет


_________________



реклама партнёра


Вернуться к началу
 Профиль Отправить личное сообщение  
 
   Похожие торренты   Автор   Торрент   Размер 
В этой теме нет новых непрочитанных сообщений. Одна встреча / Une rencontre [драма, мелодрама, 2014] DVDRip, Dub [лицензия]

salma3

507 | 9

747.59 МБ

В этой теме нет новых непрочитанных сообщений. Одна встреча / Une rencontre [драма, мелодрама, 2014] DVDRip, Dub [лицензия]

salma3

329 | 6

1.46 ГБ

В этой теме нет новых непрочитанных сообщений. Одна встреча / Une rencontre [драма, мелодрама, 2014] HDRip, Dub [лицензия]

Dracon

8 | 2

1.35 ГБ

В этой теме нет новых непрочитанных сообщений. Два дня, одна ночь / Deux jours, une nuit (Жан-Пьер Дарденн, Люк Дарденн) [2014, Драма, DVD9 | лицензия] mvo

Nickolas3435

77 | 3

4.94 ГБ

В этой теме нет новых непрочитанных сообщений. Одна миллиардная доля / Parts Per Billion [фантастика, 2014] HDRip, Mvo [Лицензия]

Dracon

634 | 15

1.46 ГБ

В этой теме нет новых непрочитанных сообщений. Встреча выпускников 2: Похороны / Klassefesten 2: Begravelsen [комедия, 2014] DVDRip, avo

Dracon

75 | 6

1.46 ГБ

В этой теме нет новых непрочитанных сообщений. Встреча с отцом / Meeting Daddy [Мелодрама, комедия, 2000] DVDRip, Dvo

salma3

17 | 2

1.45 ГБ


Начать новую тему Ответить на тему  [ 1 сообщение ] 




Для Мосгорсуда, Роскомнадзора и рекламодателей:: mosgorsud-torrent[собачка]yandex.ru