Торрент файл
скачать торрент магнет ссылка Добавлен: 20 авг 2014, 12:48
Размер: 1.46 ГБ
Сидеров: 90
Личеров: 5
Статус: (salma3)
Автор

СообщениеДобавлено: 20 авг 2014, 12:48 

Не в сети
Супермодератор
Аватара пользователя
Дата регистрации:
15 фев 2012, 16:44
Возраст: 28
Спасибо: 6584 / 2144
Сообщения: 44064
Мой парень – псих / Silver Linings Playbook

Год выпуска: 2012
Жанр: драма, мелодрама, комедия
Режиссер: Дэвид О. Расселл

В ролях: Брэдли Купер, Дженнифер Лоуренс, Роберт Де Ниро, Джеки Уивер, Крис Такер, Анупам Кхер, Джон Ортиз, Ши Уигхэм, Джулия Стайлз, Пол Херман

Описание: Главная перемена в жизни героя, после того, как жена ему изменяет — что у него диагностируют биполярное расстройство, и он 8 месяцев проводит в психушке. После чего по решению суда не должен с ней встречаться.



Страна: США
Продолжительность: 02:02:05
Перевод: Профессиональный (многоголосый, закадровый) [лицензия]
субтитры: русские, украинские, английские

Файл
Качество: BDRip-AVC
Формат файла: MKV
Видео кодек: H.264
Аудио кодек: AC3
Видео: 960x400 (2.40:1), 23.976 fps, AVC (H.264), High@L4.1 ~1264 kbps, 0.137 bit/pixel
Аудио: 48 kHz, AC3 Dolby Digital, 3/2 (L,C,R,l,r) + LFE ch, ~448 kbps

Общее
Уникальный идентификатор : 187585542104615237447333088046893159414 (0x8D1FA948D0FB65759BDC99CA42BAD3F6)
Полное имя : E:\Moy.Paren'.Psih.2012.RUS.BDRip.x264.-HELLYWOOD.mkv
Формат : Matroska
Размер файла : 1,46 Гбайт
Продолжительность : 2 ч. 2 м.
Общий поток : 1711 Кбит/сек
Дата кодирования : UTC 2014-07-11 14:30:03
Программа кодирования : mkvmerge v5.9.0 ('On The Loose') built on Dec 15 2012 16:39:58
Библиотека кодирования : libebml v1.3.0 + libmatroska v1.4.0

Видео
Идентификатор : 1
Формат : AVC
Формат/Информация : Advanced Video Codec
Профиль формата : High@L4.1
Параметр CABAC формата : Да
Параметр ReFrames формата : 12 кадров
Идентификатор кодека : V_MPEG4/ISO/AVC
Продолжительность : 2 ч. 2 м.
Битрейт : 1264 Кбит/сек
Ширина : 960 пикс.
Высота : 400 пикс.
Соотношение сторон : 2,40:1
Частота кадров : 23,976 кадр/сек
Цветовое пространство : YUV
Подвыборка цветности : 4:2:0
Битовая глубина : 8 бит
Тип развёртки : Прогрессивная
Бит/(Пиксели*Кадры) : 0.137
Размер потока : 1,05 Гбайт (72%)
Заголовок : Silver Linings Playbook
Библиотека кодирования : x264 core 125 r2208 d9d2288
Настройки программы : cabac=1 / ref=12 / deblock=1:-3:-3 / analyse=0x3:0x133 / me=umh / subme=11 / psy=1 / psy_rd=1.08:0.05 / mixed_ref=1 / me_range=32 / chroma_me=1 / trellis=2 / 8x8dct=1 / cqm=0 / deadzone=21,11 / fast_pskip=0 / chroma_qp_offset=-3 / threads=6 / lookahead_threads=1 / sliced_threads=0 / nr=0 / decimate=1 / interlaced=0 / bluray_compat=0 / constrained_intra=0 / bframes=13 / b_pyramid=2 / b_adapt=2 / b_bias=0 / direct=3 / weightb=1 / open_gop=0 / weightp=2 / keyint=240 / keyint_min=23 / scenecut=40 / intra_refresh=0 / rc_lookahead=60 / rc=2pass / mbtree=0 / bitrate=1264 / ratetol=1.0 / qcomp=0.70 / qpmin=0 / qpmax=69 / qpstep=4 / cplxblur=20.0 / qblur=0.5 / vbv_maxrate=20000 / vbv_bufsize=22500 / nal_hrd=none / ip_ratio=1.35 / pb_ratio=1.40 / aq=2:0.90
Язык : English

Аудио
Идентификатор : 2
Формат : AC-3
Формат/Информация : Audio Coding 3
Расширение режима : CM (complete main)
Идентификатор кодека : A_AC3
Продолжительность : 2 ч. 2 м.
Вид битрейта : Постоянный
Битрейт : 448 Кбит/сек
Каналы : 6 каналов
Расположение каналов : Front: L C R, Side: L R, LFE
Частота : 48,0 КГц
Битовая глубина : 16 бит
Метод сжатия : С потерями
Размер потока : 391 Мбайт (26%)
Заголовок : MVO | DD 5.1 @ 448 kbps
Язык : Russian

Текст #1
Идентификатор : 3
Формат : UTF-8
Идентификатор кодека : S_TEXT/UTF8
Идентификатор кодека/Информация : UTF-8 Plain Text
Заголовок : Notabenoid
Язык : Russian

Текст #2
Идентификатор : 4
Формат : UTF-8
Идентификатор кодека : S_TEXT/UTF8
Идентификатор кодека/Информация : UTF-8 Plain Text
Заголовок : Voronine
Язык : Russian

Текст #3
Идентификатор : 5
Формат : UTF-8
Идентификатор кодека : S_TEXT/UTF8
Идентификатор кодека/Информация : UTF-8 Plain Text
Заголовок : А.Матвеев
Язык : Russian

Текст #4
Идентификатор : 6
Формат : UTF-8
Идентификатор кодека : S_TEXT/UTF8
Идентификатор кодека/Информация : UTF-8 Plain Text
Язык : Ukrainian

Текст #5
Идентификатор : 7
Формат : UTF-8
Идентификатор кодека : S_TEXT/UTF8
Идентификатор кодека/Информация : UTF-8 Plain Text
Язык : English

Текст #6
Идентификатор : 8
Формат : UTF-8
Идентификатор кодека : S_TEXT/UTF8
Идентификатор кодека/Информация : UTF-8 Plain Text
Заголовок : SDH
Язык : English

Текст #7
Идентификатор : 9
Формат : UTF-8
Идентификатор кодека : S_TEXT/UTF8
Идентификатор кодека/Информация : UTF-8 Plain Text
Заголовок : SDH-Colored
Язык : English


_________________
Проголосуй за трекер Открытый торрент трекер - RUS-MEDIA.ORG

Проголосуй Открытый торрент трекер - RUS-MEDIA.ORG



реклама партнёра


Вернуться к началу
 Профиль Отправить личное сообщение  
 
   Похожие торренты   Автор   Торрент   Размер 
В этой теме нет новых непрочитанных сообщений. Мой парень – киллер / Mr. Right [Боевик, комедия, мелодрама, 2015] BDRip, Avo

salma3

1388 | 273

1.46 ГБ

В этой теме нет новых непрочитанных сообщений. Парень с того света / My Boyfriend's Back [комедия, ужасы, фэнтези, мелодрама, 1993] BDRip 720p, Avo

salma3

18 | 9

7.46 ГБ

В этой теме нет новых непрочитанных сообщений. Все любят китов / Big Miracle [драма, мелодрама, семейный, 2012] BDRip-AVC, Dub [Лицензия]

salma3

73 | 18

1.45 ГБ

В этой теме нет новых непрочитанных сообщений. Анна Каренина / Anna Karenina [драма, мелодрама, 2012] BDRip-AVC, Dub+Sub [Лицензия]

salma3

92 | 25

1.46 ГБ

В этой теме нет новых непрочитанных сообщений. Серебряная стрела / Silver Streak [комедия, 1976] BDRip 720p, Mvo+Dvo+Avo+Sub

salma3

35 | 2

6.51 ГБ

В этой теме нет новых непрочитанных сообщений. Патерсон / Paterson [Драма, мелодрама, комедия, 2016] BDRip, Dub [Лицензия]

salma3

0 | 0

1.46 ГБ

В этой теме нет новых непрочитанных сообщений. Стиляги [мюзикл, драма, мелодрама, комедия, 2008] BDRip-AVC [Лицензия]

salma3

110 | 60

3.37 ГБ


Начать новую тему Ответить на тему  [ 1 сообщение ] 




Для Мосгорсуда, Роскомнадзора и рекламодателей:: mosgorsud-torrent[собачка]yandex.ru