Торрент файл
скачать торрент магнет ссылка Добавлен: 19 авг 2014, 19:32
Размер: 2.18 ГБ
Сидеров: 15
Личеров: 3
Статус: (salma3)
Автор

СообщениеДобавлено: 19 авг 2014, 19:32 

Не в сети
Супермодератор
Аватара пользователя
Дата регистрации:
15 фев 2012, 16:44
Возраст: 27
Спасибо: 5121 / 2089
Сообщения: 17282
Порочная страсть / Arbitrage

Год выпуска: 2012
Жанр: триллер, драма
Режиссер: Николас Джареки

В ролях: Ричард Гир, Сьюзен Сарандон, Тим Рот, Брит Марлинг, Летиция Каста, Нэйт Паркер, Стюарт Марголин, Крис Айгеман, Грейдон Картер, Брюс Олтмен

Описание:
Роберт Миллер — харизматичный аферист и гениальный любовник. Он привык к тому, что в постелях его всегда ждут жена и любовница, которые, правда, попеременно закатывают ему скандалы, а огромные деньги делаются просто из воздуха. Но дутый бизнес не может держаться долго. Почуяв провал, он стремится поскорее продать свой хедж-фонд крупному банку, прежде чем раскроются его махинации. Непредвиденные события и нелепые ошибки толкают его на отчаянный шаг…



Страна: США
Продолжительность: 01:47:28
Перевод: Профессиональный (полное дублирование),
субтитры: русские, английские

Файл
Качество: BDRip-AVC
Формат файла: MKV
Видео кодек: H.264
Аудио кодек: AC3
Видео: 920x518 (16:9), 23.976 fps, AVC (H.264), High@L4.1 ~2005 kbps, 0.175 bit/pixel
Аудио #1: Русский: 48 kHz, AC3 Dolby Digital, 3/2 (L,C,R,l,r) + LFE ch, ~448 kbps [полное дублирование]
Аудио #2: Английский: 48 kHz, AC3 Dolby Digital, 3/2 (L,C,R,l,r) + LFE ch, ~448 kbps [Оригинал]

General
Unique ID : 226339272112770301229141555403832785308 (0xAA475BB16007C08E8662E8E50A11799C)
Complete name : D:\Porochnaja.strast.2012.x264.BDRip.(AVC).fanatus.mkv
Format : Matroska
Format version : Version 2
File size : 2.18 GiB
Duration : 1h 47mn
Overall bit rate : 2 901 Kbps
Movie name : Arbitrage (2012) - fanatus
Encoded date : UTC 2013-01-07 04:29:08
Writing application : mkvmerge v3.4.0 ('Rapunzel') сборка от May 15 2010 09:38:20
Writing library : libebml v0.8.0 + libmatroska v0.9.0

Video
ID : 1
Format : AVC
Format/Info : Advanced Video Codec
Format profile : High@L4.1
Format settings, CABAC : Yes
Format settings, ReFrames : 10 frames
Codec ID : V_MPEG4/ISO/AVC
Duration : 1h 47mn
Bit rate : 2 005 Kbps
Width : 920 pixels
Height : 518 pixels
Display aspect ratio : 16:9
Frame rate : 23.976 fps
Color space : YUV
Chroma subsampling : 4:2:0
Bit depth : 8 bits
Scan type : Progressive
Bits/(Pixel*Frame) : 0.175
Stream size : 1.46 GiB (67%)
Title : Arbitrage (2012)
Writing library : x264 core 128 r2216 198a7ea
Encoding settings : cabac=1 / ref=10 / deblock=1:-2:-2 / analyse=0x3:0x113 / me=umh / subme=11 / psy=1 / psy_rd=1.00:0.02 / mixed_ref=1 / me_range=48 / chroma_me=1 / trellis=2 / 8x8dct=1 / cqm=0 / deadzone=21,11 / fast_pskip=0 / chroma_qp_offset=-3 / threads=16 / lookahead_threads=2 / sliced_threads=0 / nr=0 / decimate=0 / interlaced=0 / bluray_compat=0 / constrained_intra=0 / bframes=14 / b_pyramid=2 / b_adapt=2 / b_bias=0 / direct=3 / weightb=1 / open_gop=0 / weightp=2 / keyint=240 / keyint_min=23 / scenecut=40 / intra_refresh=0 / rc_lookahead=240 / rc=2pass / mbtree=1 / bitrate=2005 / ratetol=1.0 / qcomp=0.60 / qpmin=0 / qpmax=69 / qpstep=3 / cplxblur=20.0 / qblur=0.5 / vbv_maxrate=50000 / vbv_bufsize=62500 / nal_hrd=none / ip_ratio=1.30 / aq=2:0.95 / zones=144661,154608,q=34
Language : English
Default : Yes
Forced : No

Audio #1
ID : 2
Format : AC-3
Format/Info : Audio Coding 3
Mode extension : CM (complete main)
Format settings, Endianness : Big
Codec ID : A_AC3
Duration : 1h 47mn
Bit rate mode : Constant
Bit rate : 448 Kbps
Channel(s) : 6 channels
Channel positions : Front: L C R, Side: L R, LFE
Sampling rate : 48.0 KHz
Bit depth : 16 bits
Compression mode : Lossy
Stream size : 344 MiB (15%)
Title : Dub
Language : Russian
Default : Yes
Forced : Yes

Audio #2
ID : 3
Format : AC-3
Format/Info : Audio Coding 3
Mode extension : CM (complete main)
Format settings, Endianness : Big
Codec ID : A_AC3
Duration : 1h 47mn
Bit rate mode : Constant
Bit rate : 448 Kbps
Channel(s) : 6 channels
Channel positions : Front: L C R, Side: L R, LFE
Sampling rate : 48.0 KHz
Bit depth : 16 bits
Compression mode : Lossy
Stream size : 344 MiB (15%)
Title : Original
Language : English
Default : No
Forced : No

Text #1
ID : 4
Format : UTF-8
Codec ID : S_TEXT/UTF8
Codec ID/Info : UTF-8 Plain Text
Language : Russian
Default : No
Forced : No

Text #2
ID : 5
Format : UTF-8
Codec ID : S_TEXT/UTF8
Codec ID/Info : UTF-8 Plain Text
Language : English
Default : No
Forced : No

Menu
00:00:00.000 : en:00:00:00.000
00:06:24.551 : en:00:06:24.551
00:13:58.671 : en:00:13:58.671
00:20:41.991 : en:00:20:41.991
00:27:21.974 : en:00:27:21.974
00:35:00.473 : en:00:35:00.473
00:40:28.926 : en:00:40:28.926
00:47:20.379 : en:00:47:20.379
00:54:28.891 : en:00:54:28.891
00:57:56.264 : en:00:57:56.264
01:06:57.680 : en:01:06:57.680
01:14:24.502 : en:01:14:24.502
01:19:12.915 : en:01:19:12.915
01:27:47.637 : en:01:27:47.637
01:37:16.456 : en:01:37:16.456
01:40:32.944 : en:01:40:32.944


_________________



реклама партнёра


Вернуться к началу
 Профиль Отправить личное сообщение  
 
   Похожие торренты   Автор   Торрент   Размер 
В этой теме нет новых непрочитанных сообщений. Страсть против политики / Страсть левых взглядов / Оставленная страсть / Passione sinistra (Марко Понти / Marco Ponti) [2013г., комедия, DVDRip] Sub

Alfredovich

12 | 6

1.69 ГБ

В этой теме нет новых непрочитанных сообщений. Иммигрантка / Роковая страсть / The Immigrant [драма, мелодрама, 2013] BDRip 720p, Mvo+Sub [Лицензия]

Dracon

141 | 21

7.01 ГБ

В этой теме нет новых непрочитанных сообщений. Иммигрантка / Роковая страсть / The Immigrant [драма, мелодрама, 2013] BDRip 1080p, Mvo+Sub [Лицензия]

Dracon

60 | 12

15.68 ГБ

В этой теме нет новых непрочитанных сообщений. Иммигрантка / Роковая страсть / The Immigrant [драма, мелодрама, 2013] BDRip 720p, Mvo+Sub [Baibako]

Dracon

69 | 8

7.88 ГБ

В этой теме нет новых непрочитанных сообщений. Страсть / The Right Temptation [триллер, драма, мелодрама, 2000] WEB-DL 720p, Dvo

salma3

26 | 11

3.04 ГБ

В этой теме нет новых непрочитанных сообщений. Преступная страсть / Ангел желания / Criminal Passion / Angel of desire [триллер, драма, детектив, 1994] SATRip, Dvo

salma3

9 | 2

1.5 ГБ

В этой теме нет новых непрочитанных сообщений. Страсть убивает / Cupid's Prey [Триллер, детектив, 2003] DVDRip, Mvo

salma3

75 | 2

1.37 ГБ


Начать новую тему Ответить на тему  [ 1 сообщение ] 




Для Мосгорсуда, Роскомнадзора и рекламодателей:: mosgorsud-torrent[собачка]yandex.ru