Торрент файл
скачать торрент магнет ссылка Добавлен: 17 авг 2014, 10:09
Размер: 1.46 ГБ
Сидеров: 2738
Личеров: 81
Статус: (Dracon)
Автор

СообщениеДобавлено: 17 авг 2014, 10:09 

Не в сети
Зам. Админа
Аватара пользователя
Дата регистрации:
02 дек 2010, 12:39
Спасибо: 12623 / 214
Сообщения: 28012
Год выпуска: 2013
Страна: США / Hours Capital, Palm-Star Entertainment, Safran Company, The
Жанр: триллер, драма
Продолжительность: 01:37:00

Перевод: Профессиональный (многоголосый)
Cубтитры: нет
Оригинальная аудиодорожка: нет

Режиссер: Эрик Хайссерер / Eric Heisserer

В ролях: Пол Уокер, Дженезис Родригез, Нэнси Нейв, Шэйн Якобсен, Наталия Ярожик, Тиджей Хассан, Лена Кларк, Кеша Баллард, Йоханс Майлс, Джудд Лорманд...

Роли дублировали:

Описание: Новый Орлеан. Август 2005-го. Смертоносная «Катрина» сметает все на своем пути. Отец изо всех сил пытается спасти свою дочь. Он понимает, что справиться со стихией, остановить беспощадный ураган не в его силах. На спасение дочери остаются считанные часы…



Качество: HDRip
Формат: AVI
Видео: 720x304 (2.35:1), XViD 1764 Кбит/сек / 23.976 fps / Бит/(Пиксели*Кадры) : 0.336
Аудио: Dolby Digital Audio Russian 448 kbps 5.1 / 48 kHz / 448 kbps

Общее
Полное имя : Pobejdaya.vremya.2013.D.HDRip.avi
Формат : AVI
Формат/Информация : Audio Video Interleave
Размер файла : 1,46 Гбайт
Продолжительность : 1 ч. 36 м.
Общий поток : 2157 Кбит/сек
Программа кодирования : VirtualDubMod 1.5.10.3 | http://www.virtualdub-fr.org || (build 2550/release)
Библиотека кодирования : VirtualDubMod build 2550/release

Видео
Идентификатор : 0
Формат : MPEG-4 Visual
Профиль формата : Advanced Simple@L5
Параметр BVOP формата : 2
Параметр QPel формата : Нет
Параметр GMC формата : Без точки перехода
Параметр матрицы формата : Default (MPEG)
Идентификатор кодека : XVID
Идентификатор кодека/Подсказка : XviD
Продолжительность : 1 ч. 36 м.
Битрейт : 1764 Кбит/сек
Ширина : 720 пикселей
Высота : 304 пикселя
Соотношение сторон : 2,35:1
Частота кадров : 23,976 кадра/сек
Цветовое пространство : YUV
Субдискретизация насыщенности : 4:2:0
Битовая глубина : 8 бит
Тип развёртки : Прогрессивная
Метод сжатия : С потерями
Бит/(Пиксели*Кадры) : 0.336
Размер потока : 1,20 Гбайт (82%)
Библиотека кодирования : XviD 1.2.1 (UTC 2008-12-04)

Аудио
Идентификатор : 1
Формат : AC-3
Формат/Информация : Audio Coding 3
Расширение режима : CM (complete main)
Параметр Endianness формата : Big
Идентификатор кодека : 2000
Продолжительность : 1 ч. 36 м.
Вид битрейта : Постоянный
Битрейт : 384 Кбит/сек
Каналы : 6 каналов
Расположение каналов : Front: L C R, Side: L R, LFE
Частота : 48,0 КГц
Битовая глубина : 16 бит
Метод сжатия : С потерями
Размер потока : 266 Мбайт (18%)
Выравнивание : Разделение по промежуткам
Продолжительность промежутка : 42 мс. (1,00 видеокадр)
Время предзагрузки промежутка : 500 мс.




реклама партнёра


Вернуться к началу
 Профиль  
 
   Похожие торренты   Автор   Торрент   Размер 
В этой теме нет новых непрочитанных сообщений. Последние часы / These Final Hours [Фантастика, триллер, драма, 2013] HDRip, Mvo

Dracon

3067 | 145

1.37 ГБ

В этой теме нет новых непрочитанных сообщений. Последние часы / These Final Hours (Зак Хилдитч) [Фантастика, триллер, драма, 2013] HDRip-AVC, mvo+sub

Dracon

67 | 4

2.04 ГБ

В этой теме нет новых непрочитанных сообщений. 127 часов / 127 Hours [триллер, биография, драма, приключения, 2010] HDRip-AVC, Dub

salma3

30 | 5

744.12 МБ

В этой теме нет новых непрочитанных сообщений. 13 часов: Тайные солдаты Бенгази / 13 Hours [боевик, триллер, драма, военный, 2016] DVD9, Dub [Лицензия]

salma3

33 | 10

7.35 ГБ

В этой теме нет новых непрочитанных сообщений. Последние часы / These Final Hours [триллер, драма, фантастика, 2013] BDRemux 1080p, Mvo

salma3

18 | 5

19.78 ГБ

В этой теме нет новых непрочитанных сообщений. 13 часов: Тайные солдаты Бенгази / 13 Hours: The Secret Soldiers of Benghazi [Боевик, триллер, драма, военный, 2016] Blu-Ray, Dub [Лицензия]

salma3

71 | 41

40.38 ГБ

В этой теме нет новых непрочитанных сообщений. Последние часы / These Final Hours (Зак Хилдитч) [фантастика, триллер, драма, 2013] BDRip 720p, Mvo+Sub

salma3

25 | 6

4.6 ГБ


Начать новую тему Ответить на тему  [ 1 сообщение ] 




Для Мосгорсуда, Роскомнадзора и рекламодателей:: mosgorsud-torrent[собачка]yandex.ru