Торрент файл
скачать торрент магнет ссылка Добавлен: 14 авг 2014, 11:29
Размер: 1.46 ГБ
Сидеров: 14
Личеров: 3
Статус: (salma3)
Автор

СообщениеДобавлено: 14 авг 2014, 11:29 

Не в сети
Супермодератор
Аватара пользователя
Дата регистрации:
15 фев 2012, 16:44
Возраст: 27
Спасибо: 5121 / 2089
Сообщения: 17292
Код «Омега» / The Omega Code

Год выпуска: 1999
Жанр: боевик, триллер, драма
Режиссер: Роберт Маркарелли / Robert Marcarelli

В ролях:
Каспер Ван Дин (Gillen Lane), Майкл Йорк (Stone Alexander), Кэтрин Оксенберг (Cassandra Barashe,), Майкл Айронсайд (Dominic), Ян Тришка (Prophet #1), Грегори Вагровски (Prophet #2), Девон Одесса (Jennifer Lane), Уильям Хуткинс (Sir Percival Lloyd), Роберт Ито (Shimoro Lin Che), Джанет Кэрролл (Dorothy Thompson), Джордж Коу (Sen. Jack Thompson), Равиль Исянов (Rykoff)...

Описание:
Давно известно, что в Библии, в Книге Откровений, скрыты древние зашифрованные послания, предсказывающие наступление глобальных судьбоносных событий. Примеры тому — появление Гитлера, убийство Кеннеди, война в Заливе. А что, если кто — то, используя последние достижения науки, сможет расшифровать коды этих пророчеств и тем самым получит контроль над нашим будущим?



Страна: США
Продолжительность: 01:39:18
Перевод: Профессиональный (многоголосый, закадровый)
Оригинальная аудиодорожка: английский
Cубтитры: русский

Файл
Качество: DVDRip
Формат файла: AVI
Видео кодек: XviD
Аудио кодек: AC3
Видео: 688x368 (1,85:1), 25,000 fps, XviD ~ 1192 kbps avg, 0.188 bit/pixel
Аудио: 48 kHz, Dolby Digital AC3 5.1, 448 kbps [MVO]
Аудио: 48 kHz, Dolby Digital AC3 5.1, 448 kbps [Английский]
Субтитры: SoftSub (srt)

Общее
Полное имя : Kod.Omega.1999.DVDRip_[New-team]_by_AVP_Studio.avi
Формат : AVI
Формат/Информация : Audio Video Interleave
Размер файла : 1,46 Гбайт
Продолжительность : 1 ч. 39 м.
Общий поток : 2103 Кбит/сек
Программа кодирования : VirtualDubModRus 1.5.10.2 (build 2542/release)
Библиотека кодирования : VirtualDubMod build 2542/release

Видео
Идентификатор : 0
Формат : MPEG-4 Visual
Профиль формата : Advanced Simple@L5
Параметр BVOP формата : 1
Параметр QPel формата : Нет
Параметр GMC формата : Без точки перехода
Параметр матрицы формата : Выборочная
Идентификатор кодека : XVID
Идентификатор кодека/Подсказка : XviD
Продолжительность : 1 ч. 39 м.
Битрейт : 1192 Кбит/сек
Ширина : 688 пикселей
Высота : 368 пикселей
Соотношение сторон : 1,85:1
Частота кадров : 25,000 кадров/сек
Цветовое пространство : YUV
Субдискретизация насыщенности : 4:2:0
Битовая глубина : 8 бит
Тип развёртки : Прогрессивная
Метод сжатия : С потерями
Бит/(Пиксели*Кадры) : 0.188
Размер потока : 847 Мбайт (57%)
Библиотека кодирования : XviD 73

Аудио #1
Идентификатор : 1
Формат : AC-3
Формат/Информация : Audio Coding 3
Расширение режима : CM (complete main)
Параметр Endianness формата : Big
Идентификатор кодека : 2000
Продолжительность : 1 ч. 39 м.
Вид битрейта : Постоянный
Битрейт : 448 Кбит/сек
Каналы : 6 каналов
Расположение каналов : Front: L C R, Side: L R, LFE
Частота : 48,0 КГц
Битовая глубина : 16 бит
Метод сжатия : С потерями
Размер потока : 318 Мбайт (21%)
Выравнивание : Разделение по промежуткам
Продолжительность промежутка : 40 мс. (1,00 видеокадр)
Время предзагрузки промежутка : 500 мс.

Аудио #2
Идентификатор : 2
Формат : AC-3
Формат/Информация : Audio Coding 3
Расширение режима : CM (complete main)
Параметр Endianness формата : Big
Идентификатор кодека : 2000
Продолжительность : 1 ч. 39 м.
Вид битрейта : Постоянный
Битрейт : 448 Кбит/сек
Каналы : 6 каналов
Расположение каналов : Front: L C R, Side: L R, LFE
Частота : 48,0 КГц
Битовая глубина : 16 бит
Метод сжатия : С потерями
Размер потока : 318 Мбайт (21%)
Выравнивание : Разделение по промежуткам
Продолжительность промежутка : 40 мс. (1,00 видеокадр)
Время предзагрузки промежутка : 500 мс


Раздача от:


_________________



реклама партнёра


Вернуться к началу
 Профиль Отправить личное сообщение  
 
   Похожие торренты   Автор   Торрент   Размер 
В этой теме нет новых непрочитанных сообщений. Альфа и Омега 3 / Alpha and Omega 3: The Great Wolf Games (Ричард Рич) [Мультфильм, комедия, приключения, семейный, 2014] WEB-DL 720p, dvo

Dracon

985 | 36

1.59 ГБ

В этой теме нет новых непрочитанных сообщений. Discovery. Гигантские самолеты. Омега 707 / Discovery. Mighty planes. Omega 707 [документальный, 2014] SATRip, Avo

salma3

0 | 6

371.13 МБ

В этой теме нет новых непрочитанных сообщений. Альфа и Омега: Приключения праздничного воя / Alpha and Omega 2: A Howl-iday Adventure [комедия, приключения, семейный, мультфильм, 2013] HDRip, Mvo

Dracon

0 | 2

699.85 МБ

В этой теме нет новых непрочитанных сообщений. Альфа и Омега: Приключения праздничного воя / Alpha and Omega 2: A Howl-iday Adventure [комедия, приключения, семейный, мультфильм, 2013] BDRip 720p, Mvo

Dracon

173 | 7

2.02 ГБ

В этой теме нет новых непрочитанных сообщений. Кодекс молчания / Code of Silence [Боевик, триллер, драма, 1985] BDRip 720p, Mvo

salma3

7 | 3

4.36 ГБ

В этой теме нет новых непрочитанных сообщений. По прозвищу Танцор / Прозвище Танцор / Операция «Танцор» / Her Secret Life /Code name Dancer [,Боевик, триллер, драма, приключения, 1987] DVDRip, AVO

salma3

2 | 1

1.45 ГБ

В этой теме нет новых непрочитанных сообщений. Миссия / Cheung foh / The Mission [боевик, триллер, драма, 1999] DVDRip, Avo

salma3

95 | 7

1.45 ГБ


Начать новую тему Ответить на тему  [ 1 сообщение ] 




Для Мосгорсуда, Роскомнадзора и рекламодателей:: mosgorsud-torrent[собачка]yandex.ru