Торрент файл
скачать торрент магнет ссылка Добавлен: 10 авг 2014, 23:46
Размер: 1.37 ГБ
Сидеров: 31
Личеров: 4
Статус: (salma3)
Автор

СообщениеДобавлено: 10 авг 2014, 23:46 

Не в сети
Супермодератор
Аватара пользователя
Дата регистрации:
06 июн 2014, 07:51
Спасибо: 607 / 0
Сообщения: 2002
Информация о фильме
Название: Хранители света
Оригинальное название: The Lightkeepers
Год выхода: 2009
Жанр: комедия
Режиссер: Дэниэл Адамс
В ролях: Ричард Дрейфусс, Брюс Дерн, Мэми Гаммер, Блайт Даннер, Том Уисдом, Джули Харрис, Стивен Расселл, Теодора Грис, Джейсон Алан Смит, Бен Дрейфусс
О фильме:
Жизни двух смотрителей маяка, твёрдо решивших никогда больше не иметь дела с противоположным полом, полностью меняются, когда в домике на побережье появляются две прекрасные женщины.

Страна: США
Студия: Cape Filmworks, Dreyfuss / James Productions, Fish Weir Filmworks
Продолжительность: 01:32:36
Перевод: Профессиональный (многоголосый закадровый)
Файл
Кодек: XviD
Качество: HDTVRip
Видео: 720x400, 1916 kbps, 25 fps, 0,266 Bits/(Pixel*Frame)
Звук: AC3, 48 kHz, 2 ch, 192 kbps
Субтитры: Нет

General
Complete name : J:RipThe.Lightkeepers.2009.HDTVRip.by_Bathory.avi
Format : AVI
Format/Info : Audio Video Interleave
File size : 1.37 GiB
Duration : 1h 32mn
Overall bit rate : 2 116 Kbps
Video
ID : 0
Format : MPEG-4 Visual
Format profile : Advanced Simple@L5
Format settings, BVOP : 1
Format settings, QPel : No
Format settings, GMC : No warppoints
Format settings, Matrix : Custom
Codec ID : XVID
Codec ID/Hint : XviD
Duration : 1h 32mn
Bit rate : 1 916 Kbps
Width : 720 pixels
Height : 400 pixels
Display aspect ratio : 16:9
Frame rate : 25.000 fps
Color space : YUV
Chroma subsampling : 4:2:0
Bit depth : 8 bits
Scan type : Progressive
Compression mode : Lossy
Bits/(Pixel*Frame) : 0.266
Stream size : 1.24 GiB (91%)
Writing library : XviD 1.2.1 (UTC 2008-12-04)
Audio
ID : 1
Format : AC-3
Format/Info : Audio Coding 3
Mode extension : CM (complete main)
Format settings, Endianness : Big
Codec ID : 2000
Duration : 1h 32mn
Bit rate mode : Constant
Bit rate : 192 Kbps
Channel(s) : 2 channels
Channel positions : Front: L R
Sampling rate : 48.0 KHz
Bit depth : 16 bits
Compression mode : Lossy
Stream size : 127 MiB (9%)
Alignment : Aligned on interleaves
Interleave, duration : 64 ms (1.60 video frames)
Interleave, preload duration : 192 ms
Title : The Lightkeepers




реклама партнёра


Вернуться к началу
 Профиль Отправить личное сообщение  
 
   Похожие торренты   Автор   Торрент   Размер 
В этой теме нет новых непрочитанных сообщений. Целитель Адамс / Patch Adams [драма, мелодрама, комедия, биография, 1998] HDRip, Dvo [Премьер-Видео]

salma3

49 | 4

1.46 ГБ

В этой теме нет новых непрочитанных сообщений. Луч света младший / Sunlight Jr. [драма, 2013] HDTVRip 1080p, Mvo

salma3

27 | 11

3.27 ГБ

В этой теме нет новых непрочитанных сообщений. Изгнанники / Banished [s01] (Джеффри Уокер, Дэниэл Персивал) [Историческая драма, 2015] HDTVRip [ViruseProject]

Dracon

803 | 312

4.79 ГБ

В этой теме нет новых непрочитанных сообщений. Изгнанники / Banished [s01] (Джеффри Уокер, Дэниэл Персивал) [Историческая драма, 2015] HDTVRip 720p [ViruseProject]

Dracon

141 | 95

8.33 ГБ

В этой теме нет новых непрочитанных сообщений. Рэй Донован / Ray Donovan [s02] (Такер Гейтс, Дэниэл Эттиэс, Майкл Аппендаль) [2014, Драма, криминал, HDTVRip | Amedia]

Nickolas3435

255 | 108

8.06 ГБ

В этой теме нет новых непрочитанных сообщений. Меч дракона / Tian jiang xiong shi (Дэниэл Ли) [боевик, драма, приключения, 2015] HDTVRip [Студия Пиратского дубляжа]

Dracon

12 | 1

2.05 ГБ

В этой теме нет новых непрочитанных сообщений. Версаль / Versailles [01x01-08 из 10] (Дэниэл Роби, Кристоф Шреве, Жалиль Леспер) [2015, драма, биография, история, HDTVRip | RedDiamond Studio]

Nickolas3435

8 | 19

5.58 ГБ


Начать новую тему Ответить на тему  [ 1 сообщение ] 




Для Мосгорсуда, Роскомнадзора и рекламодателей:: mosgorsud-torrent[собачка]yandex.ru