Торрент файл
скачать торрент магнет ссылка Добавлен: 10 авг 2014, 09:43
Размер: 1.37 ГБ
Сидеров: 560
Личеров: 31
Статус: (Dracon)
Автор

СообщениеДобавлено: 10 авг 2014, 09:43 

Не в сети
Зам. Админа
Аватара пользователя
Дата регистрации:
02 дек 2010, 12:39
Спасибо: 12460 / 214
Сообщения: 27968
Год выхода: 2013
Жанр: ужасы, триллер, детектив, приключения
Режиссер: Джефф Чемберлен
В ролях: Алекса ПенаВега, Рейли МакКлендон, Сэйдж Томпсон, Чаран Прабхакар, Адам Хендершотт, Валери С. Уолкер, Джозеф Бацел, Джордан Чемберлен, Коуди Уокер

О фильме:
В поисках приключений на Хэллоуин пятеро школьных друзей проникают в шахту, по слухам населенную призраками, — только чтобы обнаружить, к своему ужасу, что страшные истории могут быть правдой…


Страна: США
Студия: Mountainbridge Film
Продолжительность: 01:31:21
Перевод: Профессиональный (многоголосый закадровый)

Кодек: XviD
Качество: HDTVRip
Видео: 720x400, 1945 kbps, 25 fps, 0,270 Bits/(Pixel*Frame)
Звук: AC3, 48 kHz, 2 ch, 192 kbps
Субтитры: Нет



General
Complete name : J:RipAbandoned.Mine.2013.HDTVRip_by_Bathory.avi
Format : AVI
Format/Info : Audio Video Interleave
File size : 1.37 GiB
Duration : 1h 31mn
Overall bit rate : 2 145 Kbps

Video
ID : 0
Format : MPEG-4 Visual
Format profile : Advanced Simple@L5
Format settings, BVOP : 1
Format settings, QPel : No
Format settings, GMC : No warppoints
Format settings, Matrix : Custom
Codec ID : XVID
Codec ID/Hint : XviD
Duration : 1h 31mn
Bit rate : 1 945 Kbps
Width : 720 pixels
Height : 400 pixels
Display aspect ratio : 16:9
Frame rate : 25.000 fps
Color space : YUV
Chroma subsampling : 4:2:0
Bit depth : 8 bits
Scan type : Progressive
Compression mode : Lossy
Bits/(Pixel*Frame) : 0.270
Stream size : 1.24 GiB (91%)
Writing library : XviD 1.2.1 (UTC 2008-12-04)

Audio
ID : 1
Format : AC-3
Format/Info : Audio Coding 3
Mode extension : CM (complete main)
Format settings, Endianness : Big
Codec ID : 2000
Duration : 1h 31mn
Bit rate mode : Constant
Bit rate : 192 Kbps
Channel(s) : 2 channels
Channel positions : Front: L R
Sampling rate : 48.0 KHz
Bit depth : 16 bits
Compression mode : Lossy
Stream size : 125 MiB (9%)
Alignment : Aligned on interleaves
Interleave, duration : 64 ms (1.60 video frames)
Interleave, preload duration : 192 ms
Title : Abandoned Mine





реклама партнёра


Вернуться к началу
 Профиль  
 
   Похожие торренты   Автор   Торрент   Размер 
В этой теме нет новых непрочитанных сообщений. Заброшенная шахта / Abandoned Mine [ужасы, триллер, детектив, приключения, 2013] HDTV 1080i, Mvo

salma3

60 | 3

6.08 ГБ

В этой теме нет новых непрочитанных сообщений. Подземелье мертвых / Мертвая шахта / Dead Mine [ужасы, боевик, 2012] HDRip, Mvo

salma3

312 | 9

1.36 ГБ

В этой теме нет новых непрочитанных сообщений. Подземелье мертвых / Мертвая шахта / Dead Mine [Ужасы, боевик, 2012] BDRip 1080p, Mvo+Sub

salma3

40 | 6

8.2 ГБ

В этой теме нет новых непрочитанных сообщений. Подземелье мертвых / Мертвая шахта / Dead Mine [Ужасы, боевик, 2012] BDRip 720p, Mvo+Sub

salma3

60 | 10

4.63 ГБ

В этой теме нет новых непрочитанных сообщений. Подземелье мертвых / Мертвая шахта / Dead Mine [Ужасы, боевик, 2012] Blu-Ray Remux 1080p, Mvo+Sub

salma3

25 | 5

19.68 ГБ

В этой теме нет новых непрочитанных сообщений. Заброшенные / The Abandoned (The Confines) [ужасы, триллер, детектив, 2015] WEB-DLRip, dvo

Dracon

879 | 36

1.46 ГБ

В этой теме нет новых непрочитанных сообщений. Заброшенный дом / The Abandoned [ужасы, триллер, детектив, 2006] BDRip 720p, Dub+Sub

salma3

78 | 5

4.71 ГБ


Начать новую тему Ответить на тему  [ 1 сообщение ] 




Для Мосгорсуда, Роскомнадзора и рекламодателей:: mosgorsud-torrent[собачка]yandex.ru