Торрент файл
скачать торрент магнет ссылка Добавлен: 10 авг 2014, 09:36
Размер: 1.37 ГБ
Сидеров: 324
Личеров: 3
Статус: (Dracon)
Автор

СообщениеДобавлено: 10 авг 2014, 09:36 

Не в сети
Зам. Админа
Аватара пользователя
Дата регистрации:
02 дек 2010, 12:39
Спасибо: 12461 / 214
Сообщения: 27968
Год выхода: 2013
Жанр: комедия
Режиссер: Лорен Дюссо
В ролях: Антуан Дюлери, Валери Флан, Гвендолин Амон, Софи-Шарлотт Юссон, Надин Марковичи, Эстель Винсент

О фильме:
Клэр, директор кадрового агентства и мать девятилетнего ребёнка, остаётся без няни накануне важной встречи. Ей приходится смириться с самым неожиданным вариантом решения этой проблемы...


Страна: Франция
Студия: Flach Film Production
Продолжительность: 01:24:55
Перевод: Профессиональный многоголосый

Кодек: XviD
Качество: HDTVRip
Видео: 720x400, 2108 kbps, 25 fps, 0,293 Bits/(Pixel*Frame)
Звук: AC3, 48 kHz, 2 ch, 192 kbps
Субтитры: Нет


General
Complete name : J:Nebrityj.nan.2013.HDTVRip_by_Bathory.avi
Format : AVI
Format/Info : Audio Video Interleave
File size : 1.37 GiB
Duration : 1h 24mn
Overall bit rate : 2 308 Kbps

Video
ID : 0
Format : MPEG-4 Visual
Format profile : Advanced Simple@L5
Format settings, BVOP : 1
Format settings, QPel : No
Format settings, GMC : No warppoints
Format settings, Matrix : Custom
Codec ID : XVID
Codec ID/Hint : XviD
Duration : 1h 24mn
Bit rate : 2 108 Kbps
Width : 720 pixels
Height : 400 pixels
Display aspect ratio : 16:9
Frame rate : 25.000 fps
Color space : YUV
Chroma subsampling : 4:2:0
Bit depth : 8 bits
Scan type : Progressive
Compression mode : Lossy
Bits/(Pixel*Frame) : 0.293
Stream size : 1.25 GiB (91%)
Writing library : XviD 1.2.1 (UTC 2008-12-04)

Audio
ID : 1
Format : AC-3
Format/Info : Audio Coding 3
Mode extension : CM (complete main)
Format settings, Endianness : Big
Codec ID : 2000
Duration : 1h 24mn
Bit rate mode : Constant
Bit rate : 192 Kbps
Channel(s) : 2 channels
Channel positions : Front: L R
Sampling rate : 48.0 KHz
Bit depth : 16 bits
Compression mode : Lossy
Stream size : 117 MiB (8%)
Alignment : Aligned on interleaves
Interleave, duration : 64 ms (1.60 video frames)
Interleave, preload duration : 192 ms




реклама партнёра


Вернуться к началу
 Профиль  
 
   Похожие торренты   Автор   Торрент   Размер 
В этой теме нет новых непрочитанных сообщений. Приключение двух нянь / Adventures in Babysitting [комедия, 2016] WEB-DLRip-AVC, Mvo

salma3

107 | 15

1.93 ГБ

В этой теме нет новых непрочитанных сообщений. Приключение двух нянь / Adventures in Babysitting [комедия, 2016] WEB-DLRip, Dub [Line]

salma3

794 | 102

1.45 ГБ

В этой теме нет новых непрочитанных сообщений. Приключение двух нянь / Adventures in Babysitting [комедия, 2016] WEB-DL 720p, Dub [Line]

salma3

290 | 70

2.87 ГБ

В этой теме нет новых непрочитанных сообщений. Приключение двух нянь / Adventures in Babysitting ( комедия, 2016) WEB-DL 1080p | Line

marya111

0 | 0

3.48 ГБ

В этой теме нет новых непрочитанных сообщений. Человек из Рио / L'Homme de Rio [комедия, мелодрама, приключения, боевик, 1964] HDRip, Dub

salma3

32 | 5

1.46 ГБ

В этой теме нет новых непрочитанных сообщений. Любовь не по размеру / Un homme à la hauteur [Комедия, 2016] HDRip, Dub [iTunes]

marya111

199 | 28

2.05 ГБ

В этой теме нет новых непрочитанных сообщений. Любовь не по размеру / Un homme a la hauteur [комедия, 2016] BDRip 720p, Dub [лицензия]

salma3

338 | 56

4.06 ГБ


Начать новую тему Ответить на тему  [ 1 сообщение ] 




Для Мосгорсуда, Роскомнадзора и рекламодателей:: mosgorsud-torrent[собачка]yandex.ru