Торрент файл
скачать торрент магнет ссылка Добавлен: 08 авг 2014, 22:02
Размер: 1.46 ГБ
Сидеров: 1020
Личеров: 34
Статус: (salma3)
Автор

СообщениеДобавлено: 08 авг 2014, 22:02 

Не в сети
Супермодератор
Аватара пользователя
Дата регистрации:
15 фев 2012, 16:44
Возраст: 28
Спасибо: 6577 / 2143
Сообщения: 43865
Операция «Мертвый снег» 2 / Død Snø 2

Год выпуска: 2014
Жанр: ужасы, боевик, комедия
Режиссер: Томми Виркола / Tommy Wirkola

В ролях: Вегар Хоел, Орхан Гамст, Мартин Старр, Жослин ДеБоэр, Ингрид Хаас, Стиг Фроде Хенриксен, Кристиан Фидженшоу, Амрита Ачария, Дерек Мирс, Кристоффер Йонер...

Описание: После встречи в горах с нацистами-зомби лишь Мартину удалось добраться до цивилизации, в то время как все его приятели погибли. Однако парень забыл о маленьком подарке, который он получил от своей возлюбленной Ханны, — золотой монете, которую та нашла в старом доме. Эта монета — часть клада, который подчиненные штандартенфюрера Герцога собирали для своего фюрера. Но даже после смерти немцы не намерены никому отдавать свои сокровища…



Страна: Норвегия, Исландия / Saga Film, Tappeluft Pictures, thefyzz, XYZ Films
Продолжительность: 01:40:42
Перевод: Профессиональный [дублированный] [лицензия]

Файл
Качество: HDRip
Формат файла: AVI
Видео кодек: XviD
Аудио кодек: AC3
Видео: 720x304 (2.35:1), XViD 1613 Кбит/сек / 25.000 fps / Бит/(Пиксели*Кадры) : 0.307
Аудио: Dolby Digital Audio Russian 448 kbps 5.1 / 48 kHz / 448 kbps

Общее
Полное имя : Operatsiya.Mertviy.Sneg.2.2014.P.HDRip.1.46GB.avi
Формат : AVI
Формат/Информация : Audio Video Interleave
Размер файла : 1,46 Гбайт
Продолжительность : 1 ч. 40 м.
Общий поток : 2071 Кбит/сек
Программа кодирования : VirtualDubMod 1.5.10.2 (build 2540/release)
Библиотека кодирования : VirtualDubMod build 2540/release

Видео
Идентификатор : 0
Формат : MPEG-4 Visual
Профиль формата : Advanced Simple@L5
Параметр BVOP формата : 1
Параметр QPel формата : Нет
Параметр GMC формата : Без точки перехода
Параметр матрицы формата : Выборочная
Идентификатор кодека : XVID
Идентификатор кодека/Подсказка : XviD
Продолжительность : 1 ч. 40 м.
Битрейт : 1613 Кбит/сек
Ширина : 720 пикселей
Высота : 304 пикселя
Соотношение сторон : 2,35:1
Частота кадров : 24,000 кадра/сек
Цветовое пространство : YUV
Субдискретизация насыщенности : 4:2:0
Битовая глубина : 8 бит
Тип развёртки : Прогрессивная
Метод сжатия : С потерями
Бит/(Пиксели*Кадры) : 0.307
Размер потока : 1,13 Гбайт (78%)
Библиотека кодирования : XviD 1.2.1 (UTC 2008-12-04)

Аудио
Идентификатор : 1
Формат : AC-3
Формат/Информация : Audio Coding 3
Расширение режима : CM (complete main)
Параметр Endianness формата : Big
Идентификатор кодека : 2000
Продолжительность : 1 ч. 40 м.
Вид битрейта : Постоянный
Битрейт : 448 Кбит/сек
Каналы : 6 каналов
Расположение каналов : Front: L C R, Side: L R, LFE
Частота : 48,0 КГц
Битовая глубина : 16 бит
Метод сжатия : С потерями
Размер потока : 323 Мбайт (22%)
Выравнивание : Разделение по промежуткам
Продолжительность промежутка : 42 мс. (1,00 видеокадр)
Время предзагрузки промежутка : 500 мс.


Раздача от:


_________________
Проголосуй за трекер Открытый торрент трекер - RUS-MEDIA.ORG

Проголосуй Открытый торрент трекер - RUS-MEDIA.ORG



реклама партнёра


Вернуться к началу
 Профиль Отправить личное сообщение  
 
   Похожие торренты   Автор   Торрент   Размер 
В этой теме нет новых непрочитанных сообщений. Волки / Wolves (Дэвид Хэйтер) [ужасы, боевик, 2014] HDRip, Dub [Лицензия]

Dracon

12 | 2

1.37 ГБ

В этой теме нет новых непрочитанных сообщений. Снег в раю / Snow in Paradise (Эндрю Хьюм) [Триллер, драма, криминал, 2014] HDRip, dvo

Dracon

399 | 37

1.41 ГБ

В этой теме нет новых непрочитанных сообщений. Бобры-зомби / Zombeavers [ужасы, боевик, комедия, 2014] HDRip, Mvo

salma3

76 | 5

741.4 МБ

В этой теме нет новых непрочитанных сообщений. Бобры-зомби / Zombeavers [Ужасы, триллер, боевик, комедия, 2014] HDRip-AVC, Mvo+Sub

salma3

102 | 14

2.05 ГБ

В этой теме нет новых непрочитанных сообщений. Дракула: Мертвый и довольный / Dracula: Dead and Loving It [комедия, фэнтези, ужасы, 1995] WEB-DL 1080p, Mvo

salma3

32 | 19

8.97 ГБ

В этой теме нет новых непрочитанных сообщений. Город героев / Big Hero 6 (Дон Холл, Крис Уильямс) [мультфильм, фантастика, комедия, семейный, боевик, 2014] HDRip, Dub [Лицензия]

Dracon

90 | 5

2.18 ГБ

В этой теме нет новых непрочитанных сообщений. Тайная операция / The Borderland [боевик, триллер, 2014] DVDRip, Avo

salma3

60 | 1

738.4 МБ


Начать новую тему Ответить на тему  [ 1 сообщение ] 




Для Мосгорсуда, Роскомнадзора и рекламодателей:: mosgorsud-torrent[собачка]yandex.ru