Торрент файл
скачать торрент магнет ссылка Добавлен: 08 авг 2014, 21:22
Размер: 1.46 ГБ
Сидеров: 12
Личеров: 5
Статус: (salma3)
Автор

СообщениеДобавлено: 08 авг 2014, 21:22 

Не в сети
Супермодератор
Аватара пользователя
Дата регистрации:
15 фев 2012, 16:44
Возраст: 28
Спасибо: 6593 / 2145
Сообщения: 44208
К северу от Аляски / North to Alaska

Год выхода: 1960
Жанр: Комедия, вестерн
Режиссер: Генри Хэтэуэй

В ролях: Джон Уэйн, Стюарт Грейнджер, Эрни Ковач, Фабиан, Капюсин, Мики Шонесси, Карл Свенсон, Джо Сойер, Кэтлин Фримен, Джон Кволен, Стэнли Адамс, Марк Бэйли, Рэйфорд Барнс, Оскар Береги мл., Питер Борн, Лилиан Шовин, Дуглас Дик, Морис Дэллимор

О фильме:
Действие разворачивается сотни лет спустя после первой картины. Идет война, и няня-волшебница делит свое внимание между двумя семьями: сельской и городской. Отцы семейств на фронте, и в ролях любящих родителей на этот раз выступают мамаши.



Страна: США, 20th Century Fox Film Corporation
Продолжительность: 02:02:02
Перевод: Профессиональный [многоголосый] [Двадцатый Век Фокс СНГ]
Дата релиза: 08.08.2014

Файл
Качество: HDRip-AVC
Формат файла: H.264
Видео кодек: MPEG-4 AVC
Аудио кодек: AC3
Качество: HDRip (AVC)
Видео: MPEG-4 AVC, 1514 Кбит/с, 1024x436
Звук: AC3, 2 ch, 192 Кбит/с

Общее
Уникальный идентификатор : 225943991251666395891496661370594478634 (0xA9FB3AD77D1555E3BFF88518C3DD4A2A)
Полное имя : D:6K.severu.ot.Aljaski.1960.x264.HDRip.(AVC).ExKinoRay.mkv
Формат : Matroska
Размер файла : 1,46 Гбайт
Продолжительность : 2 ч. 2 м.
Общий поток : 1708 Кбит/сек
Название фильма : K.severu.ot.Aljaski.1960.x264.HDRip.(AVC).ExKinoRay
Дата кодирования : UTC 2014-08-08 15:40:25
Программа кодирования : mkvmerge v4.0.0 ('The Stars were mine') сборка от Jun 6 2010 16:18:42
Библиотека кодирования : libebml v1.0.0 + libmatroska v1.0.0

Видео
Идентификатор : 1
Формат : AVC
Формат/Информация : Advanced Video Codec
Профиль формата : High@L4.1
Параметр CABAC формата : Да
Параметр ReFrames формата : 8 кадров
Идентификатор кодека : V_MPEG4/ISO/AVC
Продолжительность : 2 ч. 2 м.
Битрейт : 1514 Кбит/сек
Ширина : 1024 пикс.
Высота : 436 пикс.
Соотношение сторон : 2,35:1
Частота кадров : 23,976 кадр/сек
Цветовое пространство : YUV
Подвыборка цветности : 4:2:0
Битовая глубина : 8 бит
Тип развёртки : Прогрессивная
Бит/(Пиксели*Кадры) : 0.141
Размер потока : 1,26 Гбайт (87%)
Заголовок : Rip by Enigma-Vladislav71
Библиотека кодирования : x264 core 125 r2208 d9d2288
Настройки программы : cabac=1 / ref=8 / deblock=1:-2:-2 / analyse=0x3:0x133 / me=umh / subme=11 / psy=1 / psy_rd=1.00:0.00 / mixed_ref=1 / me_range=48 / chroma_me=1 / trellis=2 / 8x8dct=1 / cqm=0 / deadzone=21,11 / fast_pskip=0 / chroma_qp_offset=-2 / threads=3 / lookahead_threads=1 / sliced_threads=0 / nr=0 / decimate=0 / interlaced=0 / bluray_compat=0 / constrained_intra=0 / bframes=8 / b_pyramid=2 / b_adapt=2 / b_bias=0 / direct=3 / weightb=1 / open_gop=0 / weightp=2 / keyint=240 / keyint_min=23 / scenecut=40 / intra_refresh=0 / rc=2pass / mbtree=0 / bitrate=1514 / ratetol=1.0 / qcomp=0.60 / qpmin=10 / qpmax=51 / qpstep=4 / cplxblur=20.0 / qblur=0.5 / ip_ratio=1.40 / pb_ratio=1.30 / aq=1:1.00
Язык : English

Аудио
Идентификатор : 2
Формат : AC-3
Формат/Информация : Audio Coding 3
Расширение режима : CM (complete main)
Идентификатор кодека : A_AC3
Продолжительность : 2 ч. 2 м.
Вид битрейта : Постоянный
Битрейт : 192 Кбит/сек
Каналы : 2 канала
Расположение каналов : Front: L R
Частота : 48,0 КГц
Битовая глубина : 16 бит
Метод сжатия : С потерями
Размер потока : 168 Мбайт (11%)
Язык : Russian


Релиз от: Авторы релиза:


_________________
Проголосуй за трекер Открытый торрент трекер - RUS-MEDIA.ORG

Проголосуй Открытый торрент трекер - RUS-MEDIA.ORG



реклама партнёра


Вернуться к началу
 Профиль Отправить личное сообщение  
 
   Похожие торренты   Автор   Торрент   Размер 
В этой теме нет новых непрочитанных сообщений. Discovery. Железная дорога Аляски / Railroad Alaska [02х01-09 из 10] (Пол Гудман, Ник Скуллард) [2014, Документальный, реалити-шоу, выживание, HDTVRip]

Nickolas3435

16 | 5

4.78 ГБ

В этой теме нет новых непрочитанных сообщений. Discovery. Железная дорога Аляски / Railroad Alaska [02x01-02 из 10] (Пол Гудман, Ник Скуллард) [2014, Документальный, реалити-шоу, выживание, HDTV 1080]

Nickolas3435

31 | 8

4.59 ГБ

В этой теме нет новых непрочитанных сообщений. Discovery. Железная дорога Аляски / Railroad Alaska [02x01-09 из 10] (Пол Гудман, Ник Скуллард) [2014, Документальный, реалити-шоу, выживание, HDTV 1080]

Nickolas3435

2 | 12

20.52 ГБ

В этой теме нет новых непрочитанных сообщений. Северная звезда / North Star [Приключения, вестерн, экранизация, 1996] DVDRip, Avo

salma3

97 | 29

1.46 ГБ

В этой теме нет новых непрочитанных сообщений. Территория Оклахомы / Oklahoma Territory [Вестерн, 1960] HDTV 1080i, Dvo

salma3

15 | 1

3.2 ГБ

В этой теме нет новых непрочитанных сообщений. Территория Оклахомы / Oklahoma Territory [Вестерн, 1960] HDTVRip 720p, Dvo

salma3

44 | 9

1.72 ГБ

В этой теме нет новых непрочитанных сообщений. Захват в Северном море / North Sea Hijack [боевик, триллер, приключения, 1979] HDRip, dvo

salma3

30 | 2

1.45 ГБ


Начать новую тему Ответить на тему  [ 1 сообщение ] 




Для Мосгорсуда, Роскомнадзора и рекламодателей:: mosgorsud-torrent[собачка]yandex.ru