Торрент файл
скачать торрент магнет ссылка Добавлен: 08 авг 2014, 20:41
Размер: 1.36 ГБ
Сидеров: 112
Личеров: 3
Статус: (salma3)
Автор

СообщениеДобавлено: 08 авг 2014, 20:41 

Не в сети
Супермодератор
Аватара пользователя
Дата регистрации:
15 фев 2012, 16:44
Возраст: 28
Спасибо: 6577 / 2143
Сообщения: 43865
Коттедж / The Cottage

Год выхода: 2012
Жанр: Триллер
Режиссер: Кристофер Джеймс

В ролях: Дэвид Аркетт, Кристен Далтон, Виктор Браун, Морисса О’Мара, Алана О’Мара, Франни Хокинг, Кенни Бауманн, Лоррэйн Николсон, Беллами Янг, Роум Шаданлу

О фильме:
Счастливая молодая семья с двумя маленькими дочками. Живут в чудесном доме, в саду которого находится гостевой домик. Все идет прекрасно, пока у них не возникают проблемы с деньгами. Они решают сдавать гостевой домик. Жилец находится быстро — им оказывается молодой, очаровательный новеллист. Но с его приходом в дом начинается кошмар…



Страна: США
Студия: Velvet Spoon Productions, Visualeyes Productions
Продолжительность: 01:23:50
Перевод: Профессиональный [многоголосый]

Файл
Качество: SATRip
Формат файла: AVI
Видео кодек: XviD
Аудио кодек: AC3
Видео: 1933 Кбит/с, 720x400, 25.000 кадр/с
Звук: Русский (АС3, 6 ch, 384 Кбит/с)

Семпл

Общее
Полное имя : Kottedzh.2012.SATRip.MediaClub.avi
Формат : AVI
Формат/Информация : Audio Video Interleave
Размер файла : 1,36 Гбайт
Продолжительность : 1 ч. 23 м.
Общий поток : 2326 Кбит/сек
Название фильма : MediaClub
Программа кодирования : VirtualDubMod 1.5.10.2 (build 2540/release)
Библиотека кодирования : VirtualDubMod build 2540/release

Видео
Идентификатор : 0
Формат : MPEG-4 Visual
Профиль формата : Advanced Simple@L5
Параметр BVOP формата : 2
Параметр QPel формата : Нет
Параметр GMC формата : Без точки перехода
Параметр матрицы формата : Default (MPEG)
Идентификатор кодека : XVID
Идентификатор кодека/Подсказка : XviD
Продолжительность : 1 ч. 23 м.
Битрейт : 1933 Кбит/сек
Ширина : 720 пикселей
Высота : 400 пикселей
Соотношение сторон : 16:9
Частота кадров : 25,000 кадров/сек
Цветовое пространство : YUV
Субдискретизация насыщенности : 4:2:0
Битовая глубина : 8 бит
Тип развёртки : Прогрессивная
Метод сжатия : С потерями
Бит/(Пиксели*Кадры) : 0.268
Размер потока : 1,13 Гбайт (83%)
Библиотека кодирования : XviD 65

Аудио
Идентификатор : 1
Формат : AC-3
Формат/Информация : Audio Coding 3
Расширение режима : CM (complete main)
Параметр Endianness формата : Big
Идентификатор кодека : 2000
Продолжительность : 1 ч. 23 м.
Вид битрейта : Постоянный
Битрейт : 384 Кбит/сек
Каналы : 6 каналов
Расположение каналов : Front: L C R, Side: L R, LFE
Частота : 48,0 КГц
Битовая глубина : 16 бит
Метод сжатия : С потерями
Размер потока : 230 Мбайт (17%)
Выравнивание : Разделение по промежуткам
Продолжительность промежутка : 40 мс. (1,00 видеокадр)
Время предзагрузки промежутка : 500 мс.


Релиз от:


_________________
Проголосуй за трекер Открытый торрент трекер - RUS-MEDIA.ORG

Проголосуй Открытый торрент трекер - RUS-MEDIA.ORG



реклама партнёра


Вернуться к началу
 Профиль Отправить личное сообщение  
 
   Похожие торренты   Автор   Торрент   Размер 
В этой теме нет новых непрочитанных сообщений. Райский коттедж / Eden Lodge [ужасы, триллер, детектив, 2015] DVDRip, Dvo

salma3

2174 | 113

1.39 ГБ

В этой теме нет новых непрочитанных сообщений. Западня / The Cottage [Ужасы, триллер, комедия, криминал, 2008] WEB-DL 720p, Avo

salma3

137 | 17

3.12 ГБ

В этой теме нет новых непрочитанных сообщений. Лик мести / El Rostro de la Venganza / 1 сезон 115 серий из 115 [боевик, триллер, криминал, 2012] SATRip, Mvo [Много ТВ]

salma3

8 | 32

61.38 ГБ

В этой теме нет новых непрочитанных сообщений. Московский декамерон [01-08 из 08] [Комедия, мелодрама, 2012] SATRip

salma3

31 | 22

4.06 ГБ

В этой теме нет новых непрочитанных сообщений. Век оружия. Ручные гранаты (ОСТ ТВ) [2012, документальный, SATRip]

salma3

0 | 1

325.27 МБ

В этой теме нет новых непрочитанных сообщений. Московский декамерон [01-08 из 08] [Комедия, мелодрама, 2012] SATRip-AVC

salma3

52 | 19

3.28 ГБ

В этой теме нет новых непрочитанных сообщений. Мастера выживания [2012, документальный, научно-популярный, SATRip] AVO

salma3

0 | 1

501.72 МБ


Начать новую тему Ответить на тему  [ 1 сообщение ] 




Для Мосгорсуда, Роскомнадзора и рекламодателей:: mosgorsud-torrent[собачка]yandex.ru