Торрент файл
скачать торрент магнет ссылка Добавлен: 08 авг 2014, 20:31
Размер: 1.46 ГБ
Сидеров: 11
Личеров: 3
Статус: (salma3)
Автор

СообщениеДобавлено: 08 авг 2014, 20:31 

Не в сети
Супермодератор
Аватара пользователя
Дата регистрации:
15 фев 2012, 16:44
Возраст: 27
Спасибо: 5134 / 2089
Сообщения: 17379
Резня в школе / Slaughter High

Год выхода: 1986
Жанр: Ужасы
Режиссер: Джордж Дагдэйл, Марк Эзра, Питер Маккензи Литтен

В ролях: Кэролайн Манро, Саймон Скуддамор, Кармине Яннакконе, Донна Йеджер, Гари Мартин, Билли Хартмен, Майкл Саффран, Джон Сигал, Келли Бэйкер, Сэлли Кросс

О фильме:
В колледже городка Daddsville студенты на день первоапрельского дурака устраивают несколько жестоких розыгрышей, один из которых закачивается трагедией: в результате пожара в химической лаборатории подросток Марти получает серьезные ожоги.

Проходит много лет. Однажды бывшие выпускники школы 1 апреля приглашаются на встречу школьных друзей. Но вскоре молодые люди понимают, что собрали всех их вместе в школе не случайно. Кто-то готовит им страшную месть…



Страна: Великобритания, США
Продолжительность: 01:26:43
Перевод: Профессиональный (двухголосый закадровый) [ТВ3]

Файл
Качество: DVDRip-AVC
Формат файла: h.264
Видео кодек: MPEG-4
Аудио кодек: AC3
Видео: MPEG-4, 716x572 @ Anamorphic 1018x572, 25.000 fps ~1985 kbps
Звук1: AC3 2 ch, 48 kHz ~192 kbps [DVO]
Звук2: AC3 2 ch, 48 kHz ~224 kbps [Original]

General
Unique ID : 242596590382912030328647570468012514309 (0xB682675E49B51DABA98320FEAFCB5C05)
Complete name : M:ВидеоРезня в школе (1986).mkv
Format : Matroska
Format version : Version 4 / Version 2
File size : 1.46 GiB
Duration : 1h 26mn
Overall bit rate : 2 402 Kbps
Encoded date : UTC 2014-05-28 14:12:16
Writing application : mkvmerge v6.6.0 ('The Edge Of The In Between') built on Dec 1 2013 17:55:00
Writing library : libebml v1.3.0 + libmatroska v1.4.1

Video
ID : 1
Format : AVC
Format/Info : Advanced Video Codec
Format profile : High@L4.1
Format settings, CABAC : Yes
Format settings, ReFrames : 6 frames
Codec ID : V_MPEG4/ISO/AVC
Duration : 1h 26mn
Bit rate : 1 985 Kbps
Width : 716 pixels
Height : 572 pixels
Display aspect ratio : 16:9
Frame rate mode : Constant
Frame rate : 25.000 fps
Color space : YUV
Chroma subsampling : 4:2:0
Bit depth : 8 bits
Scan type : Progressive
Bits/(Pixel*Frame) : 0.194
Stream size : 1.17 GiB (81%)
Title : MPEG-4, 716x572 @ 1018x572, 25.000 fps ~1985 kbps
Writing library : x264 core 130 r2273 b3065e6
Encoding settings : cabac=1 / ref=6 / deblock=1:-2:-1 / analyse=0x3:0x113 / me=umh / subme=9 / psy=1 / psy_rd=1.00:0.15 / mixed_ref=1 / me_range=32 / chroma_me=1 / trellis=2 / 8x8dct=1 / cqm=0 / deadzone=21,11 / fast_pskip=0 / chroma_qp_offset=-3 / threads=3 / lookahead_threads=1 / sliced_threads=0 / nr=0 / decimate=1 / interlaced=0 / bluray_compat=0 / constrained_intra=0 / bframes=8 / b_pyramid=2 / b_adapt=2 / b_bias=0 / direct=3 / weightb=1 / open_gop=0 / weightp=2 / keyint=250 / keyint_min=25 / scenecut=40 / intra_refresh=0 / rc_lookahead=50 / rc=2pass / mbtree=1 / bitrate=1985 / ratetol=1.0 / qcomp=0.60 / qpmin=0 / qpmax=69 / qpstep=4 / cplxblur=20.0 / qblur=0.5 / vbv_maxrate=62500 / vbv_bufsize=78125 / nal_hrd=none / ip_ratio=1.40 / aq=1:1.00
Language : English
Default : Yes
Forced : No
Color primaries : BT.601 PAL
Transfer characteristics : BT.709
Matrix coefficients : BT.601

Audio #1
ID : 2
Format : AC-3
Format/Info : Audio Coding 3
Mode extension : CM (complete main)
Format settings, Endianness : Big
Codec ID : A_AC3
Duration : 1h 26mn
Bit rate mode : Constant
Bit rate : 192 Kbps
Channel(s) : 2 channels
Channel positions : Front: L R
Sampling rate : 48.0 KHz
Bit depth : 16 bits
Compression mode : Lossy
Stream size : 119 MiB (8%)
Title : AC3 2 ch, 48 kHz ~192 kbps - MVO [ТВ3]
Language : Russian
Default : Yes
Forced : No

Audio #2
ID : 3
Format : AC-3
Format/Info : Audio Coding 3
Mode extension : CM (complete main)
Format settings, Endianness : Big
Codec ID : A_AC3
Duration : 1h 26mn
Bit rate mode : Constant
Bit rate : 224 Kbps
Channel(s) : 2 channels
Channel positions : Front: L R
Sampling rate : 48.0 KHz
Bit depth : 16 bits
Compression mode : Lossy
Stream size : 139 MiB (9%)
Title : AC3 2 ch, 48 kHz ~224 kbps - Original
Language : English
Default : No
Forced : No


Релиз от: DrVampir


_________________



реклама партнёра


Вернуться к началу
 Профиль Отправить личное сообщение  
 
   Похожие торренты   Автор   Торрент   Размер 
В этой теме нет новых непрочитанных сообщений. Кровавый лагерь 4: Первая резня / Camp Blood 4: First Slaughter (Марк Полонья) [Ужасы, Триллер, 2014] DVDRip, avo

Dracon

1 | 3

1.37 ГБ

В этой теме нет новых непрочитанных сообщений. Атомная школа / Class of Nuke 'Em High [ужасы, комедия, 1986] BDRemux 1080p, Avo+Sub

salma3

1 | 2

18.84 ГБ

В этой теме нет новых непрочитанных сообщений. Бойня / Slaughter [Ужасы, триллер, 2009] DVDRip, Dvo

salma3

1 | 2

691.39 МБ

В этой теме нет новых непрочитанных сообщений. Резня болельщиц / Cheerleader Massacre [ужасы, триллер, 2003] DVDRip, Avo

salma3

136 | 21

1.46 ГБ

В этой теме нет новых непрочитанных сообщений. Избиение младенцев / Slaughter Of The Innocents [ужасы, триллер, криминал, детектив, 1993] BDRip, Avo

salma3

1 | 2

1.43 ГБ

В этой теме нет новых непрочитанных сообщений. Избиение младенцев / Slaughter of the Innocents [ужасы, триллер, криминал, детектив, 1993] BDRip 720p, Avo

salma3

32 | 7

6.19 ГБ

В этой теме нет новых непрочитанных сообщений. Резня Зомби 2: Рейх Мёртвых / Zombie Massacre 2: Reich of the Dead (Люка Бони, Марко Ристори) [ужасы, Военный, 2015] DVDRip, avo

Dracon

5 | 0

1.45 ГБ


Начать новую тему Ответить на тему  [ 1 сообщение ] 




Для Мосгорсуда, Роскомнадзора и рекламодателей:: mosgorsud-torrent[собачка]yandex.ru