Торрент файл
скачать торрент магнет ссылка Добавлен: 06 авг 2014, 23:40
Размер: 1.36 ГБ
Сидеров: 1534
Личеров: 106
Автор

СообщениеДобавлено: 06 авг 2014, 23:40 

Не в сети
Супермодератор
Аватара пользователя
Дата регистрации:
06 июн 2014, 07:51
Спасибо: 619 / 0
Сообщения: 2001
Информация о фильме
Название: 2 спальни, 1 ванная
Оригинальное название: 2 Bedroom 1 Bath
Год выхода: 2014
Жанр: Ужасы, триллер
Режиссер: Стэнли Юнг
В ролях: Мишель Хикс, Эндрю В. Уолкер, Эрик Робертс, Ди Уоллес-Стоун, Костас Мэндилор, Шошана Буш, Шелби Янг, Эйден Флауэрс, Джек Доннер, Руби Лу Смит

О фильме:
Молодая пара, Кевин и Рейчел, переезжают в дом, который им видится идеальным для создания новой семьи. Вскоре выясняется, что Рейчел беременна и, казалось бы, счастью супругам нет предела, но с приятной новостью приходят и загадочные, ужасающие события. Кевину начинают сниться кошмары, которые не перестают его преследовать даже наяву, а Рейчел не дает покоя призрак в красном платье. Чем больше некогда счастливая пара пытается распутать причины происходящего, тем больше они понимают, что все события сосредоточены вокруг рождения их будущего ребенка.


Страна: США
Студия: Al Bravo Films, Chemical mind studios
Продолжительность: 01:26:50
Перевод: Профессиональный многоголосый

Файл
Кодек: XviD
Качество: SATRip
Видео: 1853 Кбит/с, 720x384, 25.000 кадр/с
Звук: Русский (АС3, 6 ch, 384 Кбит/с)

Семпл


Общее
Полное имя : 2.spalni.1.vanna.2014.SATRip.MediaClub.avi
Формат : AVI
Формат/Информация : Audio Video Interleave
Размер файла : 1,36 Гбайт
Продолжительность : 1 ч. 26 м.
Общий поток : 2246 Кбит/сек
Название фильма : MediaClub
Программа кодирования : VirtualDubMod 1.5.10.2 (build 2540/release)
Библиотека кодирования : VirtualDubMod build 2540/release

Видео
Идентификатор : 0
Формат : MPEG-4 Visual
Профиль формата : Advanced Simple@L5
Параметр BVOP формата : 2
Параметр QPel формата : Нет
Параметр GMC формата : Без точки перехода
Параметр матрицы формата : Default (MPEG)
Идентификатор кодека : XVID
Идентификатор кодека/Подсказка : XviD
Продолжительность : 1 ч. 26 м.
Битрейт : 1853 Кбит/сек
Ширина : 720 пикселей
Высота : 384 пикселя
Соотношение сторон : 1,85:1
Частота кадров : 25,000 кадров/сек
Цветовое пространство : YUV
Субдискретизация насыщенности : 4:2:0
Битовая глубина : 8 бит
Тип развёртки : Прогрессивная
Метод сжатия : С потерями
Бит/(Пиксели*Кадры) : 0.268
Размер потока : 1,12 Гбайт (82%)
Библиотека кодирования : XviD 65

Аудио
Идентификатор : 1
Формат : AC-3
Формат/Информация : Audio Coding 3
Расширение режима : CM (complete main)
Параметр Endianness формата : Big
Идентификатор кодека : 2000
Продолжительность : 1 ч. 26 м.
Вид битрейта : Постоянный
Битрейт : 384 Кбит/сек
Каналы : 6 каналов
Расположение каналов : Front: L C R, Side: L R, LFE
Частота : 48,0 КГц
Битовая глубина : 16 бит
Метод сжатия : С потерями
Размер потока : 238 Мбайт (17%)
Выравнивание : Разделение по промежуткам
Продолжительность промежутка : 40 мс. (1,00 видеокадр)
Время предзагрузки промежутка : 500 мс.




реклама партнёра


Вернуться к началу
 Профиль Отправить личное сообщение  
 
   Похожие торренты   Автор   Торрент   Размер 
В этой теме нет новых непрочитанных сообщений. 2 спальни, 1 ванная / 2 Bedroom 1 Bath [Ужасы, триллер. 2014] HDTV 1080i, Mvo

salma3

185 | 38

3.68 ГБ

В этой теме нет новых непрочитанных сообщений. Окно спальни / The Bedroom Window [триллер, криминал, детектив, 1987] WEB-DL 720p, Dub

salma3

120 | 54

4 ГБ

В этой теме нет новых непрочитанных сообщений. Окно спальни / The Bedroom Window [триллер, криминал, детектив, 1987] WEB-DLRip-AVC, Dub

salma3

0 | 0

1.46 ГБ

В этой теме нет новых непрочитанных сообщений. Окно спальни / The Bedroom Window [триллер, криминал, детектив, 1987] WEB-DL 720p, Dvo+Sub

salma3

139 | 32

4.35 ГБ

В этой теме нет новых непрочитанных сообщений. Три спальни, один труп: Тайна Авроры Тигарден / Three Bedrooms, One Corpse: An Aurora Teagarden Mystery [детектив, 2016] HDTVRip, Mvo

salma3

46 | 0

1.32 ГБ

В этой теме нет новых непрочитанных сообщений. Blood Bath [Arcade, 2016] [Лицензия]

viber

1 | 0

6.08 МБ

В этой теме нет новых непрочитанных сообщений. Candy Sweet Bedroom Masturbation (2016) 1080p

salma3

0 | 0

526.16 МБ


Начать новую тему Ответить на тему  [ 1 сообщение ] 




Для Мосгорсуда, Роскомнадзора и рекламодателей:: mosgorsud-torrent[собачка]yandex.ru