Торрент файл
скачать торрент магнет ссылка Добавлен: 02 авг 2014, 20:30
Размер: 1.45 ГБ
Сидеров: 286
Личеров: 12
Статус: (salma3)
Автор

СообщениеДобавлено: 02 авг 2014, 20:30 

В сети
Супермодератор
Аватара пользователя
Дата регистрации:
15 фев 2012, 16:44
Возраст: 28
Спасибо: 6584 / 2144
Сообщения: 44093
Оставшийся в живых / Survivor

Год выхода: 2014
Жанр: фантастика, фэнтези, боевик
Режиссер: Джон Лойд

В ролях: Даниэль Чачран, Кевин Сорбо, Пол Хант, Никки Поснер, Джеймс С. Моррис, Блейк Уэбб, Дебора Ли Дуглас, Эбигейл Мэйсон, Мелани Стоун, Dave Bresnahan

О фильме: Как только юная Кейт Митра обнаруживает обитаемую планету для тех, кто остался от человечества, удар метеорита разрушает ее космический корабль и она терпит крушение в таинственном пустынном мире. Как Кейт, капитан Хантер и другие выжившие приземляются, но попадают в засаду банды постапокалиптических воинов и мутировавших дикарей. Кейт просыпается связанной в пещере, захваченная плотоядными пещерными существами и вдали от ее друзей. Она должна научиться доверять таинственным гуманоидам планеты для того, чтобы обогнать, перехитрить и победить орду кровожадных инопланетян и огромного волка-мутанта и спасти своих друзей и своего капитана прежде, чем они все будут съедены заживо,,,



Выпущено: США / Arrowstorm Entertainment
Продолжительность: 01:33:03
Озвучивание: Любительское (одноголосое) [Andi], перевод [М. Васильев]

Файл
Качество: HDRip-AVC
Формат файла: MKV
Аудио кодек: AC3
Видео: 1852 kb/s, 1024x576
Аудио: Russian / English: AC3, 192 kb/s (2 ch)

Format : Matroska
Format version : Version 4 / Version 2
File size : 1.45 GiB
Duration : 1h 33mn
Overall bit rate : 2 237 Kbps
Movie name : Rip by 03nazar03
Encoded date : UTC 2014-08-02 10:05:54
Writing application : mkvmerge v6.1.0 ('Old Devil') built on Mar 4 2013 09:10:42
Writing library : libebml v1.3.0 + libmatroska v1.4.0

Video
ID : 1
Format : AVC
Format/Info : Advanced Video Codec
Format profile : High@L4.1
Format settings, CABAC : Yes
Format settings, ReFrames : 11 frames
Codec ID : V_MPEG4/ISO/AVC
Duration : 1h 33mn
Bit rate : 1 852 Kbps
Width : 1 024 pixels
Height : 576 pixels
Display aspect ratio : 16:9
Frame rate : 23.976 fps
Color space : YUV
Chroma subsampling : 4:2:0
Bit depth : 8 bits
Scan type : Progressive
Bits/(Pixel*Frame) : 0.131
Stream size : 1.18 GiB (81%)
Writing library : x264 core 130 r2273 b3065e6
Encoding settings : cabac=1 / ref=11 / deblock=1:-3:-3 / analyse=0x3:0x133 / me=umh / subme=11 / psy=1 / psy_rd=1.00:0.20 / mixed_ref=1 / me_range=32 / chroma_me=1 / trellis=2 / 8x8dct=1 / cqm=0 / deadzone=21,11 / fast_pskip=0 / chroma_qp_offset=-3 / threads=12 / lookahead_threads=2 / sliced_threads=0 / nr=0 / decimate=0 / interlaced=0 / bluray_compat=0 / constrained_intra=0 / bframes=10 / b_pyramid=2 / b_adapt=2 / b_bias=0 / direct=3 / weightb=1 / open_gop=0 / weightp=2 / keyint=250 / keyint_min=23 / scenecut=40 / intra_refresh=0 / rc_lookahead=60 / rc=2pass / mbtree=1 / bitrate=1852 / ratetol=1.0 / qcomp=0.60 / qpmin=0 / qpmax=69 / qpstep=4 / cplxblur=20.0 / qblur=0.5 / ip_ratio=1.40 / aq=1:1.00
Language : English
Default : Yes
Forced : No

Audio #1
ID : 2
Format : AC-3
Format/Info : Audio Coding 3
Mode extension : CM (complete main)
Format settings, Endianness : Big
Codec ID : A_AC3
Duration : 1h 33mn
Bit rate mode : Constant
Bit rate : 192 Kbps
Channel(s) : 2 channels
Channel positions : Front: L R
Sampling rate : 48.0 KHz
Bit depth : 16 bits
Compression mode : Lossy
Stream size : 128 MiB (9%)
Language : Russian
Default : Yes
Forced : No

Audio #2
ID : 3
Format : AC-3
Format/Info : Audio Coding 3
Mode extension : CM (complete main)
Format settings, Endianness : Big
Codec ID : A_AC3
Duration : 1h 33mn
Bit rate mode : Constant
Bit rate : 192 Kbps
Channel(s) : 2 channels
Channel positions : Front: L R
Sampling rate : 48.0 KHz
Bit depth : 16 bits
Compression mode : Lossy
Stream size : 128 MiB (9%)
Language : English
Default : No
Forced : No



Релиз:


_________________
Проголосуй за трекер Открытый торрент трекер - RUS-MEDIA.ORG

Проголосуй Открытый торрент трекер - RUS-MEDIA.ORG



реклама партнёра


Вернуться к началу
 Профиль Отправить личное сообщение  
 
   Похожие торренты   Автор   Торрент   Размер 
В этой теме нет новых непрочитанных сообщений. Оставшийся / The Remaining (Кэйси Ла Скала) [Фантастика, Ужасы, Триллер, 2014] HDRip, dvo

Dracon

44 | 5

1.35 ГБ

В этой теме нет новых непрочитанных сообщений. Оставшийся / The Remaining (Кэйси Ла Скала) [Фантастика, Ужасы, Триллер, 2014] HDRip, Mvo [Лицензия]

Dracon

7 | 3

1.37 ГБ

В этой теме нет новых непрочитанных сообщений. Единственный выживший (Остаться в живых) / Sole Survivor (Микаэл Саломон / Mikael Salomon) [2000г., Канада, триллер, драма, детектив, фантастика, SATRip] MVO

Alfredovich

12 | 3

2.18 ГБ

В этой теме нет новых непрочитанных сообщений. Оставшийся / The Remaining (Кэйси Ла Скала) [Фантастика, Ужасы, Триллер, 2014] BDRip 1080p, Mvo+dvo+Sub

Dracon

5 | 6

9.89 ГБ

В этой теме нет новых непрочитанных сообщений. Оставшийся / The Remaining (Кэйси Ла Скала) [Фантастика, Ужасы, Триллер, 2014] BDRip 720p, dvo

Dracon

8 | 7

5.3 ГБ

В этой теме нет новых непрочитанных сообщений. Оставшийся / The Remaining (Кэйси Ла Скала) [Фантастика, Ужасы, Триллер, 2014] BDRip 720p, Mvo [Лицензия]

Dracon

9 | 3

5.66 ГБ

В этой теме нет новых непрочитанных сообщений. P-51: Истребитель драконов / P-51 Dragon Fighter (Марк Аткинс) [Фантастика, фэнтези, боевик, военный, 2014] HDRip, mvo [Line]

Dracon

10 | 4

1.37 ГБ


Начать новую тему Ответить на тему  [ 1 сообщение ] 




Для Мосгорсуда, Роскомнадзора и рекламодателей:: mosgorsud-torrent[собачка]yandex.ru