Торрент файл
скачать торрент магнет ссылка Добавлен: 01 авг 2014, 09:40
Размер: 2.05 ГБ
Сидеров: 3038
Личеров: 33
Статус: (salma3)
Автор

СообщениеДобавлено: 01 авг 2014, 09:40 

Не в сети
Зам. Админа
Аватара пользователя
Дата регистрации:
02 дек 2010, 12:39
Спасибо: 12458 / 214
Сообщения: 27968
Год выхода: 2014
Жанр: фантастика, боевик, приключения
Режиссер: Энтони Руссо, Джо Руссо, Джосс Уидон
В ролях: Крис Эванс, Скарлетт Йоханссон, Роберт Редфорд, Сэмюэл Л. Джексон, Себастьян Стэн, Энтони Маки, Коби Смолдерс, Фрэнк Грилло, Максимилиано Эрнандес, Эмили ВанКэмп

О фильме
: После беспрецедентных событий, впервые собравших вместе команду Мстителей, Стив Роджерс, известный также как Капитан Америка, оседает в Вашингтоне и пытается приспособиться к жизни в современном мире. Но покой этому герою только снится — пытаясь помочь коллеге из агентства Щ. И. Т, Стив оказывается в центре событий, грозящих катастрофой мирового масштаба. Для того, чтобы разоблачить злодейский заговор, Капитан Америка объединяется с Черной вдовой. К ним также присоединяется новый соратник, известный как Сокол, однако никто из них даже не подозревает, на что способен новый враг.


Выпущено: США / Marvel Entertainment, Marvel Studios
Продолжительность: 02:15:54
Озвучивание: Дублированное [лицензия]

Формат: AVI (XviD)
Качество: HDRip
Видео: 1700 kb/s, 720x304
Аудио: AC3, 448 kb/s (6 ch)

Семпл
General
Complete name : 1yj.MCt1telj.DPugaYa.B01Ha.2014.D.HDRip.2100Mb.avi
Format : AVI
Format/Info : Audio Video Interleave
Format profile : OpenDML
File size : 2.05 GiB
Duration : 2h 15mn
Overall bit rate : 2 160 Kbps
Writing application : VirtualDubMod 1.5.10.2 (build 2540/release)
Writing library : VirtualDubMod build 2540/release

Video
ID : 0
Format : MPEG-4 Visual
Format profile : Advanced Simple@L5
Format settings, BVOP : 2
Format settings, QPel : No
Format settings, GMC : No warppoints
Format settings, Matrix : Default (MPEG)
Codec ID : XVID
Codec ID/Hint : XviD
Duration : 2h 15mn
Bit rate : 1 700 Kbps
Width : 720 pixels
Height : 304 pixels
Display aspect ratio : 2.35:1
Frame rate : 23.976 fps
Color space : YUV
Chroma subsampling : 4:2:0
Bit depth : 8 bits
Scan type : Progressive
Compression mode : Lossy
Bits/(Pixel*Frame) : 0.324
Stream size : 1.61 GiB (79%)
Writing library : XviD 1.2.1 (UTC 2008-12-04)

Audio
ID : 1
Format : AC-3
Format/Info : Audio Coding 3
Mode extension : CM (complete main)
Format settings, Endianness : Big
Codec ID : 2000
Duration : 2h 15mn
Bit rate mode : Constant
Bit rate : 448 Kbps
Channel(s) : 6 channels
Channel positions : Front: L C R, Side: L R, LFE
Sampling rate : 48.0 KHz
Bit depth : 16 bits
Compression mode : Lossy
Stream size : 435 MiB (21%)
Alignment : Split accross interleaves
Interleave, duration : 42 ms (1.00 video frame)
Interleave, preload duration : 500 ms




реклама партнёра


Вернуться к началу
 Профиль  
 
   Похожие торренты   Автор   Торрент   Размер 
В этой теме нет новых непрочитанных сообщений. Первый мститель: Другая война / Captain America: The Winter Soldier [фантастика, боевик, приключения, 2014] HDRip, Dub [Лицензия]

salma3

1305 | 21

1.38 ГБ

В этой теме нет новых непрочитанных сообщений. Первый мститель: Другая война / Captain America: The Winter Soldier [фантастика, боевик, приключения, 2014] BDRip 720p, Dub [Лицензия]

Dracon

13 | 2

6.61 ГБ

В этой теме нет новых непрочитанных сообщений. Первый мститель: Другая война / Captain America: The Winter Soldier [фантастика, боевик, приключения, 2014] BDRemux 1080p, Dub [Лицензия]

Dracon

121 | 8

35.16 ГБ

В этой теме нет новых непрочитанных сообщений. Первый мститель: Другая война / Captain America: The Winter Soldier [фантастика, боевик, приключения, 2014] BDRip 1080p, Dub [Лицензия]

Dracon

914 | 39

11.67 ГБ

В этой теме нет новых непрочитанных сообщений. Первый мститель: Другая война / Captain America: The Winter Soldier [фантастика, боевик, приключения, 2014] TS, dub

Dracon

33 | 3

2.06 ГБ

В этой теме нет новых непрочитанных сообщений. Первый мститель: Другая война / Captain America: The Winter Soldier [фантастика, боевик, приключения, 2014] Telecine, dub

Dracon

147 | 4

2.05 ГБ

В этой теме нет новых непрочитанных сообщений. Первый мститель: Другая война / Captain America: The Winter Soldier [фантастика, боевик, приключения, 2014] DVDRip, dub [Звук с TS]

Dracon

796 | 5

1.36 ГБ


Начать новую тему Ответить на тему  [ 1 сообщение ] 




Для Мосгорсуда, Роскомнадзора и рекламодателей:: mosgorsud-torrent[собачка]yandex.ru