Торрент файл
скачать торрент магнет ссылка Добавлен: 31 июл 2014, 10:08
Размер: 1.7 ГБ
Сидеров: 11
Личеров: 6
Статус: (salma3)
Автор

СообщениеДобавлено: 31 июл 2014, 10:08 

Не в сети
Супермодератор
Аватара пользователя
Дата регистрации:
15 фев 2012, 16:44
Возраст: 27
Спасибо: 5121 / 2089
Сообщения: 17296
Король кулачного боя / Кулачный боец / Fist Fighter

Год выхода: 1989
Жанр: Боевик, драма, спорт
Режиссер: Фрэнк Суньига

В ролях: Хорхе Риверо, Эдвард Альберт, Бренда Бакки, Майк Коннорс, Симон Андреу, Маттиас Хьюз, Эмильяно Редондо, Элеасар Гарсиа мл.

О фильме:
Бывший боксер возвращается в городок Розарио в Южной Америке, чтобы отомстить за смерть друга.



Страна: США, Испания, Мексика
Студия: Ízaro Films S.A., Eagle Film, Esme
Продолжительность: 01:32:08
Перевод: Авторский [одноголосый]

Файл
Качество: DVDRip
Формат файла: AVI
Видео кодек: XviD
Аудио кодек: AC3
Видео: 688х512, 1922 Кбит/с, 25.000 fps
Аудио1: Русский (AC3, 2 ch, 192 Кбит/с) [Авторский одноголосый (Дохалов]
Аудио2: Русский (AC3, 2 ch, 192 Кбит/с) [Авторский одноголосый [Живов) - отдельно]
Аудио3: Русский (AC3, 2 ch, 192 Кбит/с) [Авторский одноголосый[Неизвестный) - отдельно]
Аудио4: Английский (AC3, 2 ch, 128 Кбит/с) [Оригинал - отдельно]

Семпл

File: Кулачный боец. 1989. XviD. DVDRip-Morgan73.avi
Title: Кулачный боец (1989)
Author: Rip by Morgan73
Genre: Боевик, драма, спорт
Category: Художественный фильм
Comment: Релиз-группа MediaClub
FileSize: 1400.08 Mb ( 1 468 086 272 bytes )
Play length: 01:32:08.160 (138204 frames)
Subtitles: Not Present
Video: 688x512 (1.34:1), 25 fps, XviD build 50 ~1922 kbps avg, 0.22 bit/pixel
Audio: 48 kHz, AC3 Dolby Digital, 2/0 (L,R) ch, ~192 kbps
General
Complete name : F:РипыКулачный боец. 1989. XviD. DVDRip-Morgan73Кулачный боец. 1989. XviD. DVDRip-Morgan73.avi
Format : AVI
Format/Info : Audio Video Interleave
File size : 1.37 GiB
Duration : 1h 32mn
Overall bit rate : 2 125 Kbps
Movie name : Кулачный боец (1989)
Director : Rip by Morgan73
Genre : Боевик, драма, спорт
Writing application : VirtualDubMod 1.5.10.2 (build 2540/release)
Original source form/Name : Художественный фильм
Comment : Релиз-группа MediaClub

Video
ID : 0
Format : MPEG-4 Visual
Format profile : Advanced Simple@L5
Format settings, BVOP : 2
Format settings, QPel : No
Format settings, GMC : No warppoints
Format settings, Matrix : Default (MPEG)
Codec ID : XVID
Codec ID/Hint : XviD
Duration : 1h 32mn
Bit rate : 1 923 Kbps
Width : 688 pixels
Height : 512 pixels
Display aspect ratio : 4:3
Frame rate : 25.000 fps
Color space : YUV
Chroma subsampling : 4:2:0
Bit depth : 8 bits
Scan type : Progressive
Compression mode : Lossy
Bits/(Pixel*Frame) : 0.218
Stream size : 1.24 GiB (91%)
Writing library : XviD 1.2.1 (UTC 2008-12-04)

Audio
ID : 1
Format : AC-3
Format/Info : Audio Coding 3
Mode extension : CM (complete main)
Format settings, Endianness : Big
Codec ID : 2000
Duration : 1h 32mn
Bit rate mode : Constant
Bit rate : 192 Kbps
Channel(s) : 2 channels
Channel positions : Front: L R
Sampling rate : 48.0 KHz
Bit depth : 16 bits
Compression mode : Lossy
Stream size : 127 MiB (9%)
Alignment : Split accross interleaves
Interleave, duration : 40 ms (1.00 video frame)
Interleave, preload duration : 500 ms
18+ Для зрителей достигших 18 лет.
Рейтинг MPAA: R
Рейтинг R - Детям до 17 лет обязательно присутствие родителей. Рейтинг R получают фильмы, в содержании которых обязательно содержится материал, предназначенный только для взрослой аудитории. Родителям рекомендуется хорошо подумать, прежде чем посмотреть такой фильм вместе со своими детьми. Фильм, получивший рейтинг R, скорее всего содержит сексуальные сцены, эпизоды с употреблением наркотиков, нецензурную брань, фрагменты с насилием и т.д.


Релиз от: |


_________________



реклама партнёра


Вернуться к началу
 Профиль Отправить личное сообщение  
 
   Похожие торренты   Автор   Торрент   Размер 
В этой теме нет новых непрочитанных сообщений. Уличный боец: Кулак убийцы / Street Fighter: Assassin's Fist [Боевик, триллер, драма, 2014] BDRip, Avo

salma3

305 | 13

2.18 ГБ

В этой теме нет новых непрочитанных сообщений. Уличный боец: Кулак убийцы / Street Fighter: Assassin's Fist [Боевик, триллер, драма, приключение, 2014] BDRip 720p, Avo+Sub

salma3

124 | 4

8.06 ГБ

В этой теме нет новых непрочитанных сообщений. Уличный боец: Кулак убийцы / Street Fighter: Assassin's Fist [Боевик, триллер, драма, приключение, 2014] BDRemux 1080i, Avo+Sub

salma3

21 | 4

34.01 ГБ

В этой теме нет новых непрочитанных сообщений. Уличный боец: Кулак убийцы / Street Fighter: Assassin's Fist [Боевик, триллер, драма, приключение, 2014] BDRip 1080p, Avo+Sub

salma3

129 | 18

12.03 ГБ

В этой теме нет новых непрочитанных сообщений. Брюс Ли – боец / Bruce Lee-The Fighter [боевик, комедия, семейный, 2015] DVDRip, Mvo

salma3

61 | 6

1.79 ГБ

В этой теме нет новых непрочитанных сообщений. Кровавый спорт / Bloodsport [Боевик, драма, биография, спорт, 1988] BDRip 720p, Mvo+Dvo+3Avo+Sub

salma3

26 | 8

5.97 ГБ

В этой теме нет новых непрочитанных сообщений. Брюс Ли - Боец / Bruce Lee - The Fighter [Комедия, боевик, 2015] WEB-DLRip 1080p, Mvo

salma3

116 | 14

2.85 ГБ


Начать новую тему Ответить на тему  [ 1 сообщение ] 




Для Мосгорсуда, Роскомнадзора и рекламодателей:: mosgorsud-torrent[собачка]yandex.ru