Торрент файл
скачать торрент магнет ссылка Добавлен: 30 июл 2014, 23:30
Размер: 1.21 ГБ
Сидеров: 218
Личеров: 9
Статус: (salma3)
Автор

СообщениеДобавлено: 30 июл 2014, 23:30 

Не в сети
Супермодератор
Аватара пользователя
Дата регистрации:
06 июн 2014, 07:51
Спасибо: 576 / 0
Сообщения: 2002
Информация о фильме
Название: Дом терпимости
Оригинальное название: The Seasoning House
Год выхода: 2012
Жанр: Ужасы, триллер
Режиссер: Пол Хайет
В ролях: Пол Блэкуелл, Шон Пертуи, Шон Кронин, Шон Лукас, Анна Уолтон, Адриан Буше, Стюарт Бэйли, Джемма Пауэлл, Дэниэл Вивиан, Рози Дэй, Лоуренс Саундерс, Кристофер Ризин

О фильме: Фильм рассказывает о девушке Энджел, которая вынуждена работать в доме, поставляющем молодых проституток военнослужащим. Но вместо того, чтобы работать проституткой, она становится помощницей управляющего борделем Виктора. Днем в ее обязанности входит приводить проституток в порядок после того, как их неоднократно насилуют. А ночью она исследует дом со всеми его закоулками. Затем она знакомится с новенькой девочкой, и становится свидетельницей ее регулярного жестокого изнасилования. После чего в дом прибывают военные, которые похитили Энджел и убили всю ее семью, что подталкивает ее придумать план мести....



Страна: Великобритания
Студия: Sterling Pictures Ltd., Templeheart Films, Filmgate Films
Продолжительность: 01:29:31
Перевод: Любительский одноголосый

Файл
Кодек: MPEG-4 AVC
Качество: BDRip-AVC
Видео: 1300 Кбит/с, 1024x436, 25.000 кадр/с
Звук:
Аудио #1: Русский (AC3, 2 ch, 192 Кбит/с) / Любительский одноголосый (den904)
Аудио #2: Английский (AC3, 6 ch, 448 Кбит/с)
Субтитры: Английские

Семпл

Общее
Уникальный идентификатор : 217920292098534944366930092885400880014 (0xA3F1EBEE4108DA1EBA6747BB0F68038E)
Полное имя : D:Мои РипыDom.Terpimosti.2012.x264.BDRip.AVC.MediaClub.mkv
Формат : Matroska
Версия формата : Version 4 / Version 2
Размер файла : 1,21 Гбайт
Продолжительность : 1 ч. 29 м.
Общий поток : 1941 Кбит/сек
Название фильма : = MediaClub = rip by krakatuq
Дата кодирования : UTC 2014-07-28 10:25:26
Программа кодирования : mkvmerge v6.6.0 ('The Edge Of The In Between') built on Dec 1 2013 17:55:00
Библиотека кодирования : libebml v1.3.0 + libmatroska v1.4.1

Видео
Идентификатор : 1
Формат : AVC
Формат/Информация : Advanced Video Codec
Профиль формата : High@L4.1
Параметр CABAC формата : Да
Параметр ReFrames формата : 9 кадров
Идентификатор кодека : V_MPEG4/ISO/AVC
Продолжительность : 1 ч. 29 м.
Битрейт : 1300 Кбит/сек
Ширина : 1024 пикселя
Высота : 436 пикселей
Соотношение сторон : 2,35:1
Режим частоты кадров : Постоянный
Частота кадров : 25,000 кадров/сек
Цветовое пространство : YUV
Субдискретизация насыщенности : 4:2:0
Битовая глубина : 8 бит
Тип развёртки : Прогрессивная
Бит/(Пиксели*Кадры) : 0.116
Размер потока : 808 Мбайт (65%)
Заголовок : Dom.Terpimosti.2012.x264.BDRip.AVC.MediaClub
Библиотека кодирования : x264 core 142 r2409+42 04be48a tMod [8-bit@4:2:0 X86]
Настройки программы : cabac=1 / ref=9 / deblock=1:-2:-2 / analyse=0x3:0x133 / me=umh / subme=11 / psy=1 / fade_compensate=0.00 / psy_rd=1.00:0.15 / mixed_ref=1 / me_range=32 / chroma_me=1 / trellis=2 / 8x8dct=1 / cqm=0 / deadzone=21,11 / fast_pskip=0 / chroma_qp_offset=-3 / threads=3 / lookahead_threads=1 / sliced_threads=0 / nr=0 / decimate=0 / interlaced=0 / bluray_compat=0 / constrained_intra=0 / fgo=0 / bframes=8 / b_pyramid=2 / b_adapt=2 / b_bias=0 / direct=3 / weightb=1 / open_gop=0 / weightp=2 / keyint=250 / keyint_min=25 / scenecut=40 / intra_refresh=0 / rc=2pass / mbtree=0 / bitrate=1300 / ratetol=1.0 / qcomp=0.60 / qpmin=0:0:0 / qpmax=69:69:69 / qpstep=4 / cplxblur=20.0 / qblur=0.5 / ip_ratio=1.40 / pb_ratio=1.30 / aq=1:1.00 / aq-sensitivity=10.00 / aq-factor=1.00:1.00:1.00 / aq2=0 / aq3=0
Язык : English
Default : Да
Forced : Нет

Аудио #1
Идентификатор : 2
Формат : AC-3
Формат/Информация : Audio Coding 3
Расширение режима : CM (complete main)
Параметр Endianness формата : Big
Идентификатор кодека : A_AC3
Продолжительность : 1 ч. 29 м.
Вид битрейта : Постоянный
Битрейт : 192 Кбит/сек
Каналы : 2 канала
Расположение каналов : Front: L R
Частота : 48,0 КГц
Битовая глубина : 16 бит
Метод сжатия : С потерями
Размер потока : 123 Мбайт (10%)
Заголовок : TRACK_01_VO_RUS
Язык : Russian
Default : Да
Forced : Да

Аудио #2
Идентификатор : 3
Формат : AC-3
Формат/Информация : Audio Coding 3
Расширение режима : CM (complete main)
Параметр Endianness формата : Big
Идентификатор кодека : A_AC3
Продолжительность : 1 ч. 29 м.
Вид битрейта : Постоянный
Битрейт : 448 Кбит/сек
Каналы : 6 каналов
Расположение каналов : Front: L C R, Side: L R, LFE
Частота : 48,0 КГц
Битовая глубина : 16 бит
Метод сжатия : С потерями
Размер потока : 287 Мбайт (23%)
Заголовок : TRACK_02_ORIGINAL_ENG
Язык : English
Default : Нет
Forced : Нет

Текст
Идентификатор : 4
Формат : UTF-8
Идентификатор кодека : S_TEXT/UTF8
Идентификатор кодека/Информация : UTF-8 Plain Text
Заголовок : TEXT_01_SUB_ENG
Язык : English
Default : Нет
Forced : Нет

Меню
00:00:00.000 : en:00:00:00.000
00:06:51.880 : en:00:06:51.880
00:14:28.640 : en:00:14:28.640
00:21:24.640 : en:00:21:24.640
00:30:24.640 : en:00:30:24.640
00:39:45.920 : en:00:39:45.920
00:46:38.880 : en:00:46:38.880
00:54:54.000 : en:00:54:54.000
01:01:19.000 : en:01:01:19.000
01:09:06.000 : en:01:09:06.000
01:18:58.560 : en:01:18:58.560
01:26:01.200 : en:01:26:01.200





реклама партнёра


Вернуться к началу
 Профиль Отправить личное сообщение  
 
   Похожие торренты   Автор   Торрент   Размер 
В этой теме нет новых непрочитанных сообщений. Вой / Howl (Пол Хайет) [ужасы, 2015] BDRip 720p, avo+dvo

Dracon

0 | 100

4.09 ГБ

В этой теме нет новых непрочитанных сообщений. Вой / Howl (Пол Хайет) [2015, Ужасы, BDRip 1080p] avo

Dracon

523 | 14

7.88 ГБ

В этой теме нет новых непрочитанных сообщений. Вой / Howl (Пол Хайет) [2015, ужасы, HDRip-AVC] avo

Dracon

689 | 129

1.45 ГБ

В этой теме нет новых непрочитанных сообщений. Вой / Howl (Пол Хайет) [2015, ужасы, HDRip] avo

Dracon

324 | 70

745.29 МБ

В этой теме нет новых непрочитанных сообщений. Вой / Howl (Пол Хайет) [ужасы, 2015] HDRip, dvo

Dracon

1124 | 85

1.45 ГБ

В этой теме нет новых непрочитанных сообщений. Дом терпимости / House of Tolerance / L'Apollonide) (Бертран Бонелло / Bertrand Bonello) [2011г., Франция, драма, DVDRip] MVO

Alfredovich

12 | 3

2.05 ГБ

В этой теме нет новых непрочитанных сообщений. Дом призраков / Haunted / Dark House [ужасы, триллер, 2014] BDRip 720p, Avo

salma3

55 | 3

4.62 ГБ


Начать новую тему Ответить на тему  [ 1 сообщение ] 




Для Мосгорсуда, Роскомнадзора и рекламодателей:: mosgorsud-torrent[собачка]yandex.ru