Торрент файл
скачать торрент магнет ссылка Добавлен: 29 июл 2014, 01:56
Размер: 1.46 ГБ
Сидеров: 61
Личеров: 7
Статус: (salma3)
Автор

СообщениеДобавлено: 29 июл 2014, 01:56 

Не в сети
Супермодератор
Аватара пользователя
Дата регистрации:
15 фев 2012, 16:44
Возраст: 27
Спасибо: 5143 / 2090
Сообщения: 17478
Мумия: Принц Египта / Tale of the Mummy

Год выхода: 1998
Жанр: Ужасы, фантастика, триллер
Режиссер: Расселл Малкэй

В ролях: Джейсон Скотт Ли, Луиза Ломбард, Шон Пертуи, Лизетт Энтони, Майкл Лернер, Джек Девенпорт, Онор Блэкман, Кристофер Ли, Шелли Дювалл, Джерард Батлер

О фильме:
Великий фараон Аменхотеп выдал свою дочь за чужестранца по имени Талас, который оказался жестоким и кровожадным магом. По приказу фараона Таласа убивают, а на его гробницу налагают вечное проклятие. Но в день великого парада планет Талас может вернуться к жизни, если его саркофаг будет вскрыт. В ХХ веке археологическая экспедиция находит гробницу Таласа. Саркофаг перевозят в Британский музей, где ученые приступают к его изучению. И приближается день Великого парада планет, когда ужасный дух зла обретает свободу. Только археолог Саманта и детектив Райли (Джексон Скотт Ли -"Дракон: история Брюса Ли") могут помешать новой реинкарнации Таласа...



Страна: США, Великобритания, Люксембург
Продолжительность: 01:28:15
Перевод: Профессиональный (двухголосый, закадровый) [Студия "Ракурс" по заказу Екатеринбург Арт]

Файл
Качество: HDRip
Формат файла: AVI
Видео кодек: XviD
Аудио кодек: AC3
Видео: 704x304, 23.976 fps. 1912 kbps
Аудио: AC3, 6 ch, 48.0 khz, 448 kbps

Общее
Полное имя : Tale.of.the.Mummy.1998.HDRip.avi
Формат : AVI
Формат/Информация : Audio Video Interleave
Размер файла : 1,46 Гбайт
Продолжительность : 1 ч. 28 м.
Общий поток : 2370 Кбит/сек
Программа кодирования : VirtualDubMod 1.5.10.3 | http://www.virtualdub-fr.org || (build 2550/release)
Библиотека кодирования : VirtualDubMod build 2550/release

Видео
Идентификатор : 0
Формат : MPEG-4 Visual
Профиль формата : Advanced Simple@L5
Параметр BVOP формата : 1
Параметр QPel формата : Нет
Параметр GMC формата : Без точки перехода
Параметр матрицы формата : Выборочная
Идентификатор кодека : XVID
Идентификатор кодека/Подсказка : XviD
Продолжительность : 1 ч. 28 м.
Битрейт : 1912 Кбит/сек
Ширина : 704 пикс.
Высота : 304 пикс.
Соотношение сторон : 2,35:1
Частота кадров : 23,976 кадр/сек
Цветовое пространство : YUV
Подвыборка цветности : 4:2:0
Битовая глубина : 8 бит
Тип развёртки : Прогрессивная
Метод сжатия : С потерями
Бит/(Пиксели*Кадры) : 0.373
Размер потока : 1,18 Гбайт (81%)
Библиотека кодирования : XviD 73

Аудио
Идентификатор : 1
Формат : AC-3
Формат/Информация : Audio Coding 3
Расширение режима : CM (complete main)
Идентификатор кодека : 2000
Продолжительность : 1 ч. 28 м.
Вид битрейта : Постоянный
Битрейт : 448 Кбит/сек
Канал(ы) : 6 канала(ов)
Расположение каналов : Front: L C R, Side: L R, LFE
Частота : 48,0 КГц
Битовая глубина : 16 бит
Метод сжатия : С потерями
Размер потока : 283 Мбайт (19%)
Выравнивание : Разделение по промежуткам
Продолжительность промежутка : 42 мс. (1,00 видеокадр)
Время предзагрузки промежутка : 500 ms


Релиз от: Leon-masl


_________________



реклама партнёра


Вернуться к началу
 Профиль Отправить личное сообщение  
 
   Похожие торренты   Автор   Торрент   Размер 
В этой теме нет новых непрочитанных сообщений. Мумия / The Mummy [приключения, фантастика, комедия, 1999] HDRip, MVO [Петербургский дубляж]

melua3

0 | 1

2.05 ГБ

В этой теме нет новых непрочитанных сообщений. Мумия / The Mummy [ужасы, 1959] BDRip, Mvo+Dvo

salma3

80 | 7

1.46 ГБ

В этой теме нет новых непрочитанных сообщений. Мумия / The Mummy [ужасы, 1959] BDRip 1080p, Mvo+Dvo+Sub

salma3

26 | 5

7.76 ГБ

В этой теме нет новых непрочитанных сообщений. Мумия / The Mummy [Ужасы, фэнтези, боевик, приключения, 2017] WEBRip-AVC-720p, Dub [Трейлер]

salma3

1584 | 121

78.88 МБ

В этой теме нет новых непрочитанных сообщений. День мумии / Day of the Mummy (Джонни Табор) [Ужасы, 2014] HDRip, avo

Dracon

189 | 10

1.45 ГБ

В этой теме нет новых непрочитанных сообщений. Звонок / Ring / Ringu [ужасы, триллер, детектив, 1998] HDRip, Mvo

salma3

9 | 2

1.45 ГБ

В этой теме нет новых непрочитанных сообщений. Годзилла / Godzilla [фантастика, боевик, триллер, 1998] HDRip, Mvo

salma3

34 | 4

1.47 ГБ


Начать новую тему Ответить на тему  [ 1 сообщение ] 




Для Мосгорсуда, Роскомнадзора и рекламодателей:: mosgorsud-torrent[собачка]yandex.ru