Торрент файл
скачать торрент магнет ссылка Добавлен: 25 июл 2014, 23:53
Размер: 1.46 ГБ
Сидеров: 116
Личеров: 5
Статус: (salma3)
Автор

СообщениеДобавлено: 25 июл 2014, 23:53 

В сети
Супермодератор
Аватара пользователя
Дата регистрации:
15 фев 2012, 16:44
Возраст: 27
Спасибо: 5121 / 2089
Сообщения: 17270
Призрак дома на холме / The Haunting

Год выхода: 1999
Жанр: Мистика, ужасы, триллер
Режиссер: Ян де Бон

В ролях: Кэтрин Зета-Джонс, Лиам Нисон, Лили Тейлор, Оуэн Уилсон, Вирджиния Мэдсен, Брюс Дерн, Мэриан Селдерс, Аликс Коромзай, Тодд Филд, Майкл Кэвано, Чарльз Ганнинг, М.С. Гэйни, Мэри МакНил, Хэдли Юар

О фильме:
Жуткие легенды ходят вокруг огромного и зловещего особняка, известного как «Дом на холме». Это мрачное и величественное строение, некогда принадлежавшее богатейшему текстильному магнату Хью Крэйну, вот уже больше века стоит пустым и считается проклятым местом. Но именно его для своих экспериментов выбирает специалист по изучению сна доктор Марроу. Группа из четырех страдающих бессоницей молодых людей, которую пригласил доктор Марроу, должна будет провести в жутком доме несколько дней и ночей. Однако никто из участников этого странного проекта не предполагал, с каким чудовищным кошмаром им придется столкнуться. Экранизация произведения Ширли Джексона.



Страна: США
Студия: DreamWorks SKG, Roth-Arnold Productions
Продолжительность: 01:52:21
Перевод: Профессиональный [многоголосый]

Файл
Качество: DVDRip
Формат файла: AVI
Видео кодек: XviD
Аудио кодек: AC3
Видео: 720x304, 23.976 fps, 1662 kbps
Аудио: AC3, 2 ch, 48.0 khz, 192 kbps

Общее
Полное имя : Prizrak.Doma.Na.Holme.1999.HDRip.avi
Формат : AVI
Формат/Информация : Audio Video Interleave
Размер файла : 1,46 Гбайт
Продолжительность : 1 ч. 52 м.
Общий поток : 1864 Кбит/сек
Программа кодирования : VirtualDubMod 1.5.10.3 | http://www.virtualdub-fr.org || (build 2550/release)
Библиотека кодирования : VirtualDubMod build 2550/release

Видео
Идентификатор : 0
Формат : MPEG-4 Visual
Профиль формата : Advanced Simple@L5
Параметр BVOP формата : 1
Параметр QPel формата : Нет
Параметр GMC формата : Без точки перехода
Параметр матрицы формата : Выборочная
Идентификатор кодека : XVID
Идентификатор кодека/Подсказка : XviD
Продолжительность : 1 ч. 52 м.
Битрейт : 1662 Кбит/сек
Ширина : 720 пикс.
Высота : 304 пикс.
Соотношение сторон : 2,35:1
Частота кадров : 23,976 кадр/сек
Цветовое пространство : YUV
Подвыборка цветности : 4:2:0
Битовая глубина : 8 бит
Тип развёртки : Прогрессивная
Метод сжатия : С потерями
Бит/(Пиксели*Кадры) : 0.317
Размер потока : 1,30 Гбайт (89%)
Библиотека кодирования : XviD 73

Аудио
Идентификатор : 1
Формат : AC-3
Формат/Информация : Audio Coding 3
Расширение режима : CM (complete main)
Идентификатор кодека : 2000
Продолжительность : 1 ч. 52 м.
Вид битрейта : Постоянный
Битрейт : 192 Кбит/сек
Канал(ы) : 2 канала(ов)
Расположение каналов : Front: L R
Частота : 48,0 КГц
Битовая глубина : 16 бит
Метод сжатия : С потерями
Размер потока : 154 Мбайт (10%)
Выравнивание : Разделение по промежуткам
Продолжительность промежутка : 42 мс. (1,00 видеокадр)
Время предзагрузки промежутка : 500 ms


Релиз от: Leon-masl


_________________



реклама партнёра


Вернуться к началу
 Профиль Отправить личное сообщение  
 
   Похожие торренты   Автор   Торрент   Размер 
В этой теме нет новых непрочитанных сообщений. Призрак дома Бриар / Невысказанный/ The Haunting of Briar House / Unspoken [Ужасы, триллер, 2016] HDRip, Avo

salma3

228 | 475

740.69 МБ

В этой теме нет новых непрочитанных сообщений. Призрак дома Бриар / Невысказанный/ The Haunting of Briar House / Unspoken [триллер, 2016] HDRip, Avo

salma3

510 | 75

1.47 ГБ

В этой теме нет новых непрочитанных сообщений. Устрашение невинных / Haunting of the innocent [триллер, ужасы, мистика, 2014] DVDRip, Dvo

salma3

424 | 11

1.51 ГБ

В этой теме нет новых непрочитанных сообщений. Призраки в Коннектикуте 2: Тени прошлого / The Haunting in Connecticut 2: Ghosts of Georgia [ужасы, триллер, драма, 2013] HDRip, dub [Чистый звук]

Dracon

200 | 5

1.46 ГБ

В этой теме нет новых непрочитанных сообщений. Призраки Энфилда / Enfield Haunting [S01] (Кристоффер Нюхольм) [Ужасы, мистика, драма, 2015] HDTVRip [ViruseProject]

Dracon

426 | 54

1.69 ГБ

В этой теме нет новых непрочитанных сообщений. Призраки Энфилда / Enfield Haunting [S01] (Кристоффер Нюхольм) [Ужасы, мистика, драма, 2015] HDTVRip 720p [ViruseProject]

Dracon

313 | 45

3.09 ГБ

В этой теме нет новых непрочитанных сообщений. Потревоженный / Яхта-призрак / Alarmed / Ghost boat (Matt Lofgren) [ужасы, триллер, 2014] HDRip, dvo

Dracon

1749 | 150

1.45 ГБ


Начать новую тему Ответить на тему  [ 1 сообщение ] 




Для Мосгорсуда, Роскомнадзора и рекламодателей:: mosgorsud-torrent[собачка]yandex.ru