Торрент файл
скачать торрент магнет ссылка Добавлен: 23 июл 2014, 20:37
Размер: 2.05 ГБ
Сидеров: 80
Личеров: 2
Статус: (Dracon)
Автор

СообщениеДобавлено: 23 июл 2014, 20:37 

Не в сети
Зам. Админа
Аватара пользователя
Дата регистрации:
02 дек 2010, 12:39
Спасибо: 12461 / 214
Сообщения: 27968
Год выпуска: 2014
Жанр: Ужасы
Выпущено: США, Blumhouse Productions
Режиссер: Майк Флэнеган
В ролях: Карен Гиллан, Брентон Туэйтес, Кэти Сакхофф, Рори Кокрейн, Анналиса Бассо, Гаррет Райан, Джеймс Лэфферти, Мигель Сандовал, Кейт Сигел, Скотт Грэхэм
Описание:Смерть родителей сильно повлияла на судьбу двух осиротевших детей. По прошествии времени, в двадцатилетнем возрасте, сестра все еще продолжает так считать и хочет доказать брату, что привидение, вышедшее из зеркала, стало причиной гибели близких людей и всех случившихся последующих бед…[/color]



Выпущено: США / Blumhouse Productions, Intrepid Pictures, WWE Studios
Продолжительность: 01:42:52
Озвучивание: Дублированное [iTunes]

Формат: AVI (XviD)
Качество: HDRip
Видео: 1978 kb/s, 720x304
Аудио: Russian: AC3, 384 kb/s (6 ch) / English: AC3, 448 kb/s (6 ch)
Размер: 2,100 MB
Скачать: Сэмпл

Общее
Полное имя : E:ФильмыOculus.2013.D.HDRip.2100MB.avi
Формат : AVI
Формат/Информация : Audio Video Interleave
Профиль формата : OpenDML
Размер файла : 2,05 Гбайт
Продолжительность : 1 ч. 44 м.
Общий поток : 2818 Кбит/сек
Программа кодирования : VirtualDubMod 1.5.10.2 (build 2540/release)
Библиотека кодирования : VirtualDubMod build 2540/release

Видео
Идентификатор : 0
Формат : MPEG-4 Visual
Профиль формата : Advanced Simple@L5
Параметр BVOP формата : 2
Параметр QPel формата : Нет
Параметр GMC формата : Без точки перехода
Параметр матрицы формата : Выборочная
Идентификатор кодека : XVID
Идентификатор кодека/Подсказка : XviD
Продолжительность : 1 ч. 44 м.
Битрейт : 1967 Кбит/сек
Ширина : 720 пикселей
Высота : 304 пикселя
Соотношение сторон : 2,35:1
Частота кадров : 23,976 кадра/сек
Цветовое пространство : YUV
Субдискретизация насыщенности : 4:2:0
Битовая глубина : 8 бит
Тип развёртки : Прогрессивная
Метод сжатия : С потерями
Бит/(Пиксели*Кадры) : 0.375
Размер потока : 1,43 Гбайт (70%)
Библиотека кодирования : XviD 1.2.1 (UTC 2008-12-04)

Аудио #1
Идентификатор : 1
Формат : AC-3
Формат/Информация : Audio Coding 3
Расширение режима : CM (complete main)
Параметр Endianness формата : Big
Идентификатор кодека : 2000
Продолжительность : 1 ч. 44 м.
Вид битрейта : Постоянный
Битрейт : 384 Кбит/сек
Каналы : 6 каналов
Расположение каналов : Front: L C R, Side: L R, LFE
Частота : 48,0 КГц
Битовая глубина : 16 бит
Метод сжатия : С потерями
Размер потока : 286 Мбайт (14%)
Выравнивание : Разделение по промежуткам
Продолжительность промежутка : 42 мс. (1,00 видеокадр)
Время предзагрузки промежутка : 500 мс.

Аудио #2
Идентификатор : 2
Формат : AC-3
Формат/Информация : Audio Coding 3
Расширение режима : CM (complete main)
Параметр Endianness формата : Big
Идентификатор кодека : 2000
Продолжительность : 1 ч. 44 м.
Вид битрейта : Постоянный
Битрейт : 448 Кбит/сек
Каналы : 6 каналов
Расположение каналов : Front: L C R, Side: L R, LFE
Частота : 48,0 КГц
Битовая глубина : 16 бит
Метод сжатия : С потерями
Размер потока : 333 Мбайт (16%)
Выравнивание : Разделение по промежуткам
Продолжительность промежутка : 42 мс. (1,00 видеокадр)
Время предзагрузки промежутка : 500 мс.





реклама партнёра


Вернуться к началу
 Профиль  
 
   Похожие торренты   Автор   Торрент   Размер 
В этой теме нет новых непрочитанных сообщений. Окулус / Oculus [Ужасы, 2013] WEB-DLRip, Dub [iTunes]

Dracon

73 | 3

1.37 ГБ

В этой теме нет новых непрочитанных сообщений. Окулус / Oculus [Ужасы, 2013] WEB-DL 720p, Dub [iTunes]

Dracon

52 | 3

3.08 ГБ

В этой теме нет новых непрочитанных сообщений. Окулус / Oculus [Ужасы, 2013] Blu-Ray Remux 1080p, Dub [iTunes]

Dracon

54 | 7

25.6 ГБ

В этой теме нет новых непрочитанных сообщений. Окулус / Oculus [Ужасы, 2014] BDRip 720p, Dub [iTunes]

Dracon

196 | 11

4.65 ГБ

В этой теме нет новых непрочитанных сообщений. Окулус / Oculus [ужасы, триллер, 2013] BDRip-AVC, Dub [лицензия]

salma3

52 | 5

2.14 ГБ

В этой теме нет новых непрочитанных сообщений. Окулус / Oculus [ужасы, триллер, 2013] DVD5, Dub [лицензия]

Dracon

75 | 4

4.12 ГБ

В этой теме нет новых непрочитанных сообщений. Охотники за духами / Ghost Team One [ужасы, комедия, 2013] HDRip, Dub [iTunes]

Dracon

275 | 9

1.36 ГБ


Начать новую тему Ответить на тему  [ 1 сообщение ] 




Для Мосгорсуда, Роскомнадзора и рекламодателей:: mosgorsud-torrent[собачка]yandex.ru