Торрент файл
скачать торрент магнет ссылка Добавлен: 22 июл 2014, 07:59
Размер: 1.37 ГБ
Сидеров: 108
Личеров: 6
Статус: (salma3)
Автор

СообщениеДобавлено: 22 июл 2014, 07:59 

Не в сети
Супермодератор
Аватара пользователя
Дата регистрации:
06 июн 2014, 07:51
Спасибо: 619 / 0
Сообщения: 2001
Информация о фильме
Название: Обезьянья лапа
Оригинальное название: Тhe Monkey's Paw
Год выхода: 2013
Жанр: ужасы, триллер
Режиссер: Бретт Симмонс
В ролях: С.Дж. Томасон, Стивен Лэнг, Мишель Пирс, Корбин Блю, Дэниэл Хью Келли, Чарльз С. Даттон, Товия Дон, Джессика Гарви, Энди Фавро, Джеймс Минор III, Грэйсон Берри, Сабрина Дженнарино, Джон Льюис, Аделла Готье, Джейсон Стенли

О фильме:
Есть прекрасная возможность испытать те чувства, которые мы испытываем, когда исполняются наши заветные желания. Вот что бы вы хотели? Есть у вас мечта? А никогда не думали над тем, к каким последствиям может привести легкое исполнение желаний? И еще: кто может их исполнить? Фея? Волшебная палочка? Волшебник? Президент страны?.. Ну - последнее точно фантастика. Тут роль «феи» исполняет обезьянья лапа, которая интригует зрителя на протяжении всего просмотра. Последствия исполнения желаний оказываются неожиданными. Узнав о них, можно извлечь массу уроков... Экранизация по произведению: В.В. Джейкобс.


Страна: США
Студия: TMP Films, Jay-X Entertainment
Продолжительность: 01:28:28
Перевод: Любительский двухголосый [DeadSno & den904]

Файл
Кодек: XviD
Качество: HDRip
Видео: 720x400, 1826 kbps, 23,976 fps, 0,264 Bits/(Pixel*Frame)
Звук: AC3, 48 kHz, 6 ch, 384 kbps
Субтитры: Нет


General
Complete name : G:RipThe.Monkey's.Paw.2013.HDRip.by_Bathory.avi
Format : AVI
Format/Info : Audio Video Interleave
File size : 1.37 GiB
Duration : 1h 28mn
Overall bit rate : 2 219 Kbps
Writing application : VirtualDubMod 1.5.10.3 | http://www.virtualdub-fr.org || (build 2550/release)
Writing library : VirtualDubMod build 2550/release

Video
ID : 0
Format : MPEG-4 Visual
Format profile : Advanced Simple@L5
Format settings, BVOP : 1
Format settings, QPel : No
Format settings, GMC : No warppoints
Format settings, Matrix : Custom
Codec ID : XVID
Codec ID/Hint : XviD
Duration : 1h 28mn
Bit rate : 1 826 Kbps
Width : 720 pixels
Height : 400 pixels
Display aspect ratio : 16:9
Frame rate : 23.976 fps
Color space : YUV
Chroma subsampling : 4:2:0
Bit depth : 8 bits
Scan type : Progressive
Compression mode : Lossy
Bits/(Pixel*Frame) : 0.264
Stream size : 1.13 GiB (82%)
Writing library : XviD 73

Audio
ID : 1
Format : AC-3
Format/Info : Audio Coding 3
Mode extension : CM (complete main)
Format settings, Endianness : Big
Codec ID : 2000
Duration : 1h 28mn
Bit rate mode : Constant
Bit rate : 384 Kbps
Channel(s) : 6 channels
Channel positions : Front: L C R, Side: L R, LFE
Sampling rate : 48.0 KHz
Bit depth : 16 bits
Compression mode : Lossy
Stream size : 243 MiB (17%)
Alignment : Split accross interleaves
Interleave, duration : 42 ms (1.00 video frame)
Interleave, preload duration : 500 ms





реклама партнёра


Вернуться к началу
 Профиль Отправить личное сообщение  
 
   Похожие торренты   Автор   Торрент   Размер 
В этой теме нет новых непрочитанных сообщений. Убойная Красотка / Bombshell Bloodbath (Бретт Маллен) [Ужасы, 2014] HDRip, avo

Dracon

75 | 4

1.37 ГБ

В этой теме нет новых непрочитанных сообщений. Улики / Evidence [Триллер, ужасы, 2013] HDRip-AVC, Dub

salma3

74 | 14

745.93 МБ

В этой теме нет новых непрочитанных сообщений. Вспышка гнева / Huff [ужасы, триллер, 2013] HDRip, Dvo

salma3

31 | 5

1.37 ГБ

В этой теме нет новых непрочитанных сообщений. Тихая обитель / Silent Retreat [Ужасы, триллер, 2013] HDRip, Avo

salma3

94 | 22

991.94 МБ

В этой теме нет новых непрочитанных сообщений. Телекинез / Carrie [триллер, ужасы, драма, 2013] HDRip, Dub [iPad]

salma3

26 | 6

1.36 ГБ

В этой теме нет новых непрочитанных сообщений. Пораженный / Afflicted [Ужасы, триллер, 2013] HDRip, mvo [Чистый звук]

Dracon

4178 | 206

1.37 ГБ

В этой теме нет новых непрочитанных сообщений. Спектр / Espectro (Альфонсо Пинеда Ульоа) [Ужасы, Триллер, 2013] HDRip, avo

Dracon

3 | 5

1.41 ГБ


Начать новую тему Ответить на тему  [ 1 сообщение ] 




Для Мосгорсуда, Роскомнадзора и рекламодателей:: mosgorsud-torrent[собачка]yandex.ru