Торрент файл
скачать торрент магнет ссылка Добавлен: 20 июл 2014, 22:53
Размер: 1.46 ГБ
Сидеров: 8
Личеров: 3
Статус: (salma3)
Автор

СообщениеДобавлено: 20 июл 2014, 22:53 

В сети
Супермодератор
Аватара пользователя
Дата регистрации:
15 фев 2012, 16:44
Возраст: 27
Спасибо: 5142 / 2090
Сообщения: 17471
Предупредительный удар / Termination man

Год выпуска: 1998
Жанр: Боевик
Режиссер: Фред Галло / Fred Gallo

В ролях: Стив Рейлсбэк, Джеймс Фарентино, Афина Мэсси, Эб Лоттимер, Владимир Кулешов, Яков Луи, Ирина Малышева, Руби Зак, Фред Галло, Руслан Скрипник

Описание:
Известный сербский террорист Юрдович изобретает новое адское оружие: сильнейший нервный газ, способный проникать в организм человека даже сквозь самые современные средства химической защиты. Уничтожив с помощью газа отряд американских солдат, Юрдович угрожает в следующий раз поразить более масштабную цель, если все его требования не будут выполнены.
Начальник департамента безопасности Соединенных Штатов звонит одному из лучших секретных агентов Дилану Попу. Поп объединяется с коллегой — суперпрофессионалом Эдом Марксом и агентом Делилой Шейн, чтобы проникнуть в секретную резиденцию Юрдовича в Адриатическом море…

Сэмпл:

Страна: США
Продолжительность: 01:32:07
Перевод: Одноголосый [закадровый] [Денис Строев]

Файл
Качество: DVDRip [исх. DVD5]
Формат файла: AVI
Видео кодек: XviD
Аудио кодек: AC3
Video: 640x480 (1.33:1), 29.970 fps, XviD build 50 ~2070 kbps avg, 0.22 bit/pixel
Audio: 48 kHz, AC3 Dolby Digital, 2/0 (L,R) ch, ~192.00 kbps avg

Время Раздачи 11-00 до 16-00 + 20-00 до 03-00

download\Termination_man_1998.DVDRip.avi
Format : AVI
Format/Info : Audio Video Interleave
File size : 1.46 GiB
Duration : 1h 32mn
Overall bit rate : 2 274 Kbps
Writing application : VirtualDubMod 1.5.10.3 | http://www.virtualdub-fr.org || (build 2550/release)
Writing library : VirtualDubMod build 2550/release

Video
ID : 0
Format : MPEG-4 Visual
Format profile : Advanced Simple@L5
Format settings, BVOP : Yes
Format settings, QPel : No
Format settings, GMC : No warppoints
Format settings, Matrix : Default (H.263)
Codec ID : XVID
Codec ID/Hint : XviD
Duration : 1h 32mn
Bit rate : 2 070 Kbps
Width : 640 pixels
Height : 480 pixels
Display aspect ratio : 4:3
Frame rate : 29.970 fps
Color space : YUV
Chroma subsampling : 4:2:0
Bit depth : 8 bits
Scan type : Progressive
Compression mode : Lossy
Bits/(Pixel*Frame) : 0.225
Stream size : 1.33 GiB (91%)
Writing library : XviD 1.2.1 (UTC 2008-12-04)

Audio
ID : 1
Format : AC-3
Format/Info : Audio Coding 3
Mode extension : CM (complete main)
Format settings, Endianness : Big
Codec ID : 2000
Duration : 1h 32mn
Bit rate mode : Constant
Bit rate : 192 Kbps
Channel(s) : 2 channels
Channel positions : Front: L R
Sampling rate : 48.0 KHz
Bit depth : 16 bits
Compression mode : Lossy
Stream size : 127 MiB (8%)
Alignment : Split accross interleaves
Interleave, duration : 33 ms (1.00 video frame)
Interleave, preload duration : 500 ms

Релиз от:


_________________



реклама партнёра


Вернуться к началу
 Профиль Отправить личное сообщение  
 
   Похожие торренты   Автор   Торрент   Размер 
В этой теме нет новых непрочитанных сообщений. Почтальон наносит ответный удар / Ответный удар / Xun cheng ma [боевик, драма, приключения, 1982] DVDRip, Mvo

salma3

8 | 4

1.47 ГБ

В этой теме нет новых непрочитанных сообщений. Точка прерывания / Termination Point [Фантастика, триллер, 2007] DVDRip, Mvo

salma3

69 | 12

1.37 ГБ

В этой теме нет новых непрочитанных сообщений. Предупредительный выстрел / Warning Shot [Детектив, 1967] IPTVRip, Mvo

salma3

68 | 0

1.45 ГБ

В этой теме нет новых непрочитанных сообщений. Карающий удар / Full Impact [Боевик, 1993] DVDRip. Avo

salma3

8 | 2

1.46 ГБ

В этой теме нет новых непрочитанных сообщений. Подлый удар / Lowball [боевик, драма, криминал, 1996] DVDRip, Dvo

salma3

22 | 2

1.12 ГБ

В этой теме нет новых непрочитанных сообщений. Первый удар / First Strike [боевик, триллер, комедия, 1996] DVDRip, Mvo

salma3

67 | 5

1.37 ГБ

В этой теме нет новых непрочитанных сообщений. Последний удар / Final Impact [боевик, драма, 1992] DVDRip, Mvo

salma3

23 | 3

1.47 ГБ


Начать новую тему Ответить на тему  [ 1 сообщение ] 




Для Мосгорсуда, Роскомнадзора и рекламодателей:: mosgorsud-torrent[собачка]yandex.ru