Торрент файл
скачать торрент магнет ссылка Добавлен: 18 июл 2014, 13:28
Размер: 1.57 ГБ
Сидеров: 30
Личеров: 10
Статус: (salma3)
Автор

СообщениеДобавлено: 18 июл 2014, 13:28 

В сети
Супермодератор
Аватара пользователя
Дата регистрации:
15 фев 2012, 16:44
Возраст: 28
Спасибо: 6411 / 2128
Сообщения: 38225
Иаков. Сразившийся с Ангелом / Jacob

Год выхода: 1994
Жанр: драма, криминал, биография, история
Режиссер: Питер Холл

В ролях: Мэттью Модайн, Лара Флинн Бойл, Шон Бин, Джосс Экленд, Джульетт Обри, Ирен Папас, Джанкарло Джаннини, Кристоф Вальц…

О фильме: «Фильм 2 из 13 “Библейской коллекции” »
История Иакова излагается в Книге Бытие. Она начинается с того, что Бог открыл беременной Ревекке, что та родит близнецов, которым предназначено стать родоначальниками двух народов, причем народ, который произойдет от старшего из братьев, будет подвластен потомкам младшего.

Будучи любимцем матери Ревекки, Иаков хитростью добился от престарелого слепого отца Исаака благословения на первородство и сделался родоначальником избранного народа Израильского. Вся дальнейшая жизнь Иакова, как она рассказана в книге Бытие, представляет собой расплату за обман.



Страна: Чехия, Франция, Великобритания, Италия, Германия, США, Нидерланды
Студия: Beta Film, France 2 (FR 2), Radiotelevisione Italiana (RAI), Turner Pictures (I)…
Продолжительность: 01:30:29
Перевод: Профессиональный (многоголосый, закадровый)

Файл
Качество: DVDRip-AVC
Формат файла: MKV
Видео кодек: h.264
Аудио кодек: AC3
Видео: AVC, 1024 x 768, ~2051 kbps
Звук: Русский: Dolby Digital 2.0; 192Kbps / Английский: Dolby Digital 2.0; 192Kbps

Семпл

Общее
Уникальный идентификатор : 202341191616097838440209881129346373524 (0x98397EF94EF15B97AADA0194E45F9794)
Полное имя : G: Библейские сказания Библейская коллекция The Bible (1994-2002-2009-2010) Полное коллекционное собраниеБиблейские сказания11. Иаков. Сразившийся с ангеломНовая папкаJacob.1994.DVDRip-AVC\02. Jacob.1994.DVDRip-AVC.mkv
Формат : Matroska
Версия формата : Version 4 / Version 2
Размер файла : 1,57 Гбайт
Продолжительность : 1 ч. 30 м.
Общий поток : 2484 Кбит/сек
Дата кодирования : UTC 2014-07-17 14:30:43
Программа кодирования : mkvmerge v6.9.1 ('Blue Panther') 64bit built on Apr 18 2014 18:23:38
Библиотека кодирования : libebml v1.3.0 + libmatroska v1.4.1

Видео
Идентификатор : 1
Формат : AVC
Формат/Информация : Advanced Video Codec
Профиль формата : Main@L4.1
Параметр CABAC формата : Да
Параметр ReFrames формата : 1 кадр
Идентификатор кодека : V_MPEG4/ISO/AVC
Продолжительность : 1 ч. 30 м.
Битрейт : 2051 Кбит/сек
Ширина : 1024 пикселя
Высота : 768 пикселей
Соотношение сторон : 4:3
Режим частоты кадров : Постоянный
Частота кадров : 25,000 кадров/сек
Цветовое пространство : YUV
Субдискретизация насыщенности : 4:2:0
Битовая глубина : 8 бит
Тип развёртки : Прогрессивная
Бит/(Пиксели*Кадры) : 0.104
Размер потока : 1,30 Гбайт (83%)
Default : Да
Forced : Нет

Аудио #1
Идентификатор : 2
Формат : AC-3
Формат/Информация : Audio Coding 3
Расширение режима : CM (complete main)
Параметр Endianness формата : Big
Идентификатор кодека : A_AC3
Продолжительность : 1 ч. 30 м.
Вид битрейта : Постоянный
Битрейт : 192 Кбит/сек
Каналы : 2 канала
Расположение каналов : Front: L R
Частота : 48,0 КГц
Битовая глубина : 16 бит
Метод сжатия : С потерями
Размер потока : 124 Мбайт (8%)
Default : Да
Forced : Нет

Аудио #2
Идентификатор : 3
Формат : AC-3
Формат/Информация : Audio Coding 3
Расширение режима : CM (complete main)
Параметр Endianness формата : Big
Идентификатор кодека : A_AC3
Продолжительность : 1 ч. 30 м.
Вид битрейта : Постоянный
Битрейт : 192 Кбит/сек
Каналы : 2 канала
Расположение каналов : Front: L R
Частота : 48,0 КГц
Битовая глубина : 16 бит
Метод сжатия : С потерями
Размер потока : 124 Мбайт (8%)
Default : Нет
Forced : Нет


_________________
Проголосуй за трекер Открытый торрент трекер - RUS-MEDIA.ORG

Проголосуй Открытый торрент трекер - RUS-MEDIA.ORG



реклама партнёра


Вернуться к началу
 Профиль Отправить личное сообщение  
 
   Похожие торренты   Автор   Торрент   Размер 
В этой теме нет новых непрочитанных сообщений. Jacob (Felipe Jacob) - Singles And EP's Collection (2012-2016) MP3

salma3

4 | 2

442.07 МБ

В этой теме нет новых непрочитанных сообщений. Безумие короля Георга / The Madness of King George [драма, биография, история, 1994] HDTVRip 720p, Dvo+Avo

salma3

164 | 30

2.51 ГБ

В этой теме нет новых непрочитанных сообщений. Небесные создания / Heavenly Creatures [триллер, драма, мелодрама, криминал, биография, 1994] BDRip, Mvo

salma3

89 | 21

1.45 ГБ

В этой теме нет новых непрочитанных сообщений. Месмер / Mesmer [драма, биография, 1994] DVDRip, Dvo

salma3

276 | 52

2.05 ГБ

В этой теме нет новых непрочитанных сообщений. Глава 27 / Chapter 27 [драма, криминал, биография, история, 2007] BDRip 1080p, Mvo

salma3

12 | 2

8.16 ГБ

В этой теме нет новых непрочитанных сообщений. В центре внимания / Spotlight [драма, криминал, биография, история, 2015] BDRip, avo

marya111

32 | 9

1.46 ГБ

В этой теме нет новых непрочитанных сообщений. В центре внимания / Spotlight [драма, криминал, биография, история, 2015] BDRip 720p, MVO

marya111

64 | 14

9.34 ГБ


Начать новую тему Ответить на тему  [ 1 сообщение ] 




Для Мосгорсуда, Роскомнадзора и рекламодателей:: mosgorsud-torrent[собачка]yandex.ru