Торрент файл
скачать торрент магнет ссылка Добавлен: 15 июл 2014, 18:40
Размер: 1.47 ГБ
Сидеров: 1
Личеров: 3
Статус: (salma3)
Автор

СообщениеДобавлено: 15 июл 2014, 18:40 

Не в сети
Супермодератор
Аватара пользователя
Дата регистрации:
15 фев 2012, 16:44
Возраст: 27
Спасибо: 5139 / 2089
Сообщения: 17423
Смертельная игра / Deadly Game

Год выпуска: 1998
Жанр: боевик, триллер, комедия, криминал, семейный
Режиссер: Джеффри Рейнер / Jeffrey Reiner

В ролях: Тим Мэтисон, Райан Де Боер, Кэрол Альт, Уильям Кэтт, Кэтрин Оксенберг, Даг Абрахамс, Эдди Мекка, Эд Маринаро, Майкл Гелбарт, Гарвин Кросс

Описание:
12-летний Натан, виртуозный карманный воришка, однажды оказался свидетелем убийства, совершенного крутым мафиози, и дал показания в полиции. Для охраны к Натану приставили опытного детектива Норма, и вскоре он также становится их мишенью….



Страна: США, Канада
Продолжительность: 01:32:38
Перевод1: Профессиональный [многоголосый закадровый] [Рен ТВ]
Перевод2: [Профессиональный двухголосый, закадровый] ["Ракурс"]

Файл
Качество: DVDRip
Формат файла: AVI
Видео кодек: XviD
Аудио кодек: AC3
Видео: 640x480 (1.33:1), 23.976 fps, XviD build 65 ~1672 kbps avg, 0.23 bit/pixel
Аудио1: Русский: 48 kHz, AC3 Dolby Digital, 2/0 (L,R) ch, ~192 kbps [многоголосый]
Аудио2: Русский: 48 kHz, AC3 Dolby Digital, 2/0 (L,R) ch, ~192 kbps [двухголосый]
Аудио3: Английский: 48 kHz, AC3 Dolby Digital, 2/0 (L,R) ch, ~192 kbps [Оригинал]


General
Complete name : E:\Фильмы\Смертельная игра.1998.DVDRip.2xMVO+ENG.[tfile.ru].avi
Format : AVI
Format/Info : Audio Video Interleave
File size : 1.47 GiB
Duration : 1h 32mn
Overall bit rate : 2 269 Kbps
Writing application : VirtualDubMod 1.5.10.2 (build 2542/release)
Writing library : VirtualDubMod build 2542/release

Video
ID : 0
Format : MPEG-4 Visual
Format profile : Advanced Simple@L5
Format settings, BVOP : 2
Format settings, QPel : No
Format settings, GMC : No warppoints
Format settings, Matrix : Custom
Codec ID : XVID
Codec ID/Hint : XviD
Duration : 1h 32mn
Bit rate : 1 674 Kbps
Width : 640 pixels
Height : 480 pixels
Display aspect ratio : 4:3
Frame rate : 23.976 fps
Color space : YUV
Chroma subsampling : 4:2:0
Bit depth : 8 bits
Scan type : Progressive
Compression mode : Lossy
Bits/(Pixel*Frame) : 0.227
Stream size : 1.08 GiB (74%)
Writing library : XviD 65

Audio #1
ID : 1
Format : AC-3
Format/Info : Audio Coding 3
Mode extension : CM (complete main)
Codec ID : 2000
Duration : 1h 32mn
Bit rate mode : Constant
Bit rate : 192 Kbps
Channel(s) : 2 channels
Channel positions : Front: L R
Sampling rate : 48.0 KHz
Bit depth : 16 bits
Compression mode : Lossy
Stream size : 127 MiB (8%)
Alignment : Split accross interleaves
Interleave, duration : 42 ms (1.00 video frame)
Interleave, preload duration : 500 ms

Audio #2
ID : 2
Format : AC-3
Format/Info : Audio Coding 3
Mode extension : CM (complete main)
Codec ID : 2000
Duration : 1h 32mn
Bit rate mode : Constant
Bit rate : 192 Kbps
Channel(s) : 2 channels
Channel positions : Front: L R
Sampling rate : 48.0 KHz
Bit depth : 16 bits
Compression mode : Lossy
Stream size : 127 MiB (8%)
Alignment : Split accross interleaves
Interleave, duration : 42 ms (1.00 video frame)
Interleave, preload duration : 500 ms

Audio #3
ID : 3
Format : AC-3
Format/Info : Audio Coding 3
Format profile : Dolby Digital
Mode extension : CM (complete main)
Codec ID : 2000
Duration : 1h 32mn
Bit rate mode : Constant
Bit rate : 192 Kbps
Channel(s) : 2 channels
Channel positions : Front: L R
Sampling rate : 48.0 KHz
Bit depth : 16 bits
Compression mode : Lossy
Stream size : 127 MiB (8%)
Alignment : Split accross interleaves
Interleave, duration : 42 ms (1.00 video frame)
Interleave, preload duration : 500 ms


_________________



реклама партнёра


Вернуться к началу
 Профиль Отправить личное сообщение  
 
   Похожие торренты   Автор   Торрент   Размер 
В этой теме нет новых непрочитанных сообщений. Полицейский-самурай 2: Смертельная месть / Samurai Cop 2: Deadly Vengeance [боевик, триллер, криминал, 2015] HDRip, Avo

salma3

55 | 4

1.27 ГБ

В этой теме нет новых непрочитанных сообщений. Полицейский-самурай 2: Смертельная месть / Samurai Cop 2: Deadly Vengeance [боевик, триллер, криминал, 2015] BDRip 720p, Avo

salma3

93 | 18

3.4 ГБ

В этой теме нет новых непрочитанных сообщений. Смертельная поездка / Смертельная прогулка / Mortelle randonnee [триллер, криминал, детектив, 1983] DVDRip, Avo

salma3

0 | 6

1.56 ГБ

В этой теме нет новых непрочитанных сообщений. Ночная игра / Night Game [триллер, драма, криминал, 1989] BDRip, Dvo [НТВ+]

salma3

37 | 14

1.46 ГБ

В этой теме нет новых непрочитанных сообщений. Честная игра / Fair Game [боевик, триллер, 1995] WEBDLRip, Dub

salma3

11 | 3

1.46 ГБ

В этой теме нет новых непрочитанных сообщений. Жестокая игра / The Crying Game [триллер, драма, мелодрама, криминал, 1992] BDRip 1080p, 2Dvo+Avo+Sub

salma3

27 | 1

7.35 ГБ

В этой теме нет новых непрочитанных сообщений. Инициация: Тихая ночь, смертельная ночь 4 / Initiation: Silent Night, Deadly Night 4 [ужасы, триллер, 1990] DVDRip, Avo

salma3

127 | 304

1.37 ГБ


Начать новую тему Ответить на тему  [ 1 сообщение ] 




Для Мосгорсуда, Роскомнадзора и рекламодателей:: mosgorsud-torrent[собачка]yandex.ru