Торрент файл
скачать торрент магнет ссылка Добавлен: 15 июл 2014, 10:03
Размер: 2.18 ГБ
Сидеров: 999
Личеров: 46
Статус: (Dracon)
Автор

СообщениеДобавлено: 15 июл 2014, 10:03 

Не в сети
Зам. Админа
Аватара пользователя
Дата регистрации:
02 дек 2010, 12:39
Спасибо: 12460 / 214
Сообщения: 27968
Страна: США
Студия: Disruption Entertainment, Paramount Pictures, Protozoa Pictures, Regency Enterprises
Жанр: драма, приключения, фэнтези
Год выпуска: 2014
Продолжительность: 02:17:53

Перевод: Профессиональный (полное дублирование) [Лицензия iTunes]
Cубтитры: Russian, English
Оригинальная аудиодорожка: English

Режиссер:
Даррен Аронофски / Darren Aronofsky

В ролях:
Расселл Кроу, Эмма Уотсон, Логан Лерман, Дженнифер Коннелли, Энтони Хопкинс, Дакота Гойо, Дуглас Бут, Кевин Дюран, Бэрри Слоун, Соната Висоцкайте

Описание:
История отца, воина и спасителя Человечества и всего живого на Земле.

Сэмпл:

Качество видео: BDRip-AVC [BDRemux 1080p]
Формат видео: MKV
Видео кодек: AVC
Аудио кодек: AC3
Видео: 1687 Кбит/сек, 912*494 (16:9), в 23,976 кадр/сек, AVC
Аудио #1: Russian, 384 Кбит/сек, 48,0 КГц, 16 бит, 6 канала(ов), AC-3
Аудио #2: English, 192 Кбит/сек, 48,0 КГц, 16 бит, 2 канала(ов), AC-3
Общее
Уникальный идентификатор : 239369351122258615210617060072893327011 (0xB414DC3022B2A4D29ECE24A1A64A26A3)
Полное имя : O:tempнойNoah.2014.BDRip-AVC.Dub.2.18Gb...stalkerok.new-team.mkv
Формат : Matroska
Размер файла : 2,18 Гбайт
Продолжительность : 2 ч. 17 м.
Общий поток : 2265 Кбит/сек
Название фильма : Noah (2014) (New-Team) (Rip by Stalker oK)
Дата кодирования : UTC 2014-07-14 22:00:20
Программа кодирования : mkvmerge v6.1.0 ('Old Devil') built on Mar 4 2013 09:10:42
Библиотека кодирования : libebml v1.3.0 + libmatroska v1.4.0

Видео
Идентификатор : 1
Формат : AVC
Формат/Информация : Advanced Video Codec
Профиль формата : High@L4.1
Параметр CABAC формата : Да
Параметр ReFrames формата : 10 кадры
Идентификатор кодека : V_MPEG4/ISO/AVC
Продолжительность : 2 ч. 17 м.
Битрейт : 1687 Кбит/сек
Ширина : 912 пикс.
Высота : 494 пикс.
Соотношение сторон : 16:9
Частота кадров : 23,976 кадр/сек
Цветовое пространство : YUV
Подвыборка цветности : 4:2:0
Битовая глубина : 8 бит
Тип развёртки : Прогрессивная
Бит/(Пиксели*Кадры) : 0.156
Размер потока : 1,58 Гбайт (73%)
Библиотека кодирования : x264 core 142 r2431 ac76440
Настройки программы : cabac=1 / ref=10 / deblock=1:-3:-3 / analyse=0x3:0x133 / me=umh / subme=11 / psy=1 / psy_rd=1.00:0.08 / mixed_ref=1 / me_range=48 / chroma_me=1 / trellis=2 / 8x8dct=1 / cqm=0 / deadzone=21,11 / fast_pskip=0 / chroma_qp_offset=-3 / threads=12 / lookahead_threads=3 / sliced_threads=0 / nr=0 / decimate=0 / interlaced=0 / bluray_compat=0 / constrained_intra=0 / bframes=12 / b_pyramid=2 / b_adapt=2 / b_bias=0 / direct=3 / weightb=1 / open_gop=0 / weightp=2 / keyint=240 / keyint_min=23 / scenecut=40 / intra_refresh=0 / rc_lookahead=80 / rc=2pass / mbtree=1 / bitrate=1687 / ratetol=1.0 / qcomp=0.70 / qpmin=0 / qpmax=69 / qpstep=4 / cplxblur=20.0 / qblur=0.5 / vbv_maxrate=25000 / vbv_bufsize=30000 / nal_hrd=none / filler=0 / ip_ratio=1.40 / aq=2:0.90

Аудио #1
Идентификатор : 2
Формат : AC-3
Формат/Информация : Audio Coding 3
Расширение режима : CM (complete main)
Идентификатор кодека : A_AC3
Продолжительность : 2 ч. 17 м.
Вид битрейта : Постоянный
Битрейт : 384 Кбит/сек
Канал(ы) : 6 канала(ов)
Расположение каналов : Front: L C R, Side: L R, LFE
Частота : 48,0 КГц
Битовая глубина : 16 бит
Метод сжатия : С потерями
Размер потока : 379 Мбайт (17%)
Язык : Russian

Аудио #2
Идентификатор : 3
Формат : AC-3
Формат/Информация : Audio Coding 3
Расширение режима : CM (complete main)
Идентификатор кодека : A_AC3
Продолжительность : 2 ч. 17 м.
Вид битрейта : Постоянный
Битрейт : 192 Кбит/сек
Канал(ы) : 2 канала(ов)
Расположение каналов : Front: L R
Частота : 48,0 КГц
Битовая глубина : 16 бит
Метод сжатия : С потерями
Размер потока : 189 Мбайт (8%)
Язык : English

Текст #1
Идентификатор : 4
Формат : UTF-8
Идентификатор кодека : S_TEXT/UTF8
Идентификатор кодека/Информация : UTF-8 Plain Text
Заголовок : NotaBenoid
Язык : Russian

Текст #2
Идентификатор : 5
Формат : UTF-8
Идентификатор кодека : S_TEXT/UTF8
Идентификатор кодека/Информация : UTF-8 Plain Text
Язык : English

Меню
00:00:00.000 : :Chapter 01
00:04:48.955 : :Chapter 02
00:08:37.266 : :Chapter 03
00:12:23.033 : :Chapter 04
00:18:43.080 : :Chapter 05
00:23:25.487 : :Chapter 06
00:32:06.424 : :Chapter 07
00:37:27.203 : :Chapter 08
00:42:50.734 : :Chapter 09
00:54:35.647 : :Chapter 10
01:01:14.962 : :Chapter 11
01:03:28.596 : :Chapter 12
01:09:33.794 : :Chapter 13
01:19:18.336 : :Chapter 14
01:21:56.536 : :Chapter 15
01:29:12.347 : :Chapter 16
01:34:02.053 : :Chapter 17
01:40:27.354 : :Chapter 18
01:49:23.098 : :Chapter 19
01:55:57.825 : :Chapter 20
02:00:37.230 : :Chapter 21
02:11:32.676 : :Chapter 22
02:17:52.889 : :Chapter 23





реклама партнёра


Вернуться к началу
 Профиль  
 
   Похожие торренты   Автор   Торрент   Размер 
В этой теме нет новых непрочитанных сообщений. Ной / Noah [Драма, приключения, 2014] BDRip-AVC, Dub+Avo+Sub [iTunes]

Dracon

100 | 7

3.69 ГБ

В этой теме нет новых непрочитанных сообщений. Ной / Noah [Драма, приключения, 2014] BDRip 720p, Dub+Sub [iTunes]

Dracon

570 | 26

6.04 ГБ

В этой теме нет новых непрочитанных сообщений. Ной 3D / Noah 3D [Драма, приключения, 2014] BDRip 1080p, Dub [iTunes | 3D-Video]

Dracon

20 | 3

12.86 ГБ

В этой теме нет новых непрочитанных сообщений. Ной / Noah [Драма, приключения, 2014] BDRip 1080p, Dub+Sub [iTunes | 3D-Video]

Dracon

532 | 39

11.44 ГБ

В этой теме нет новых непрочитанных сообщений. Недооформлен Ной / Noah (Даррен Аронофски) [2014 г., драма, приключения, BDRip] Данный торрент является блокированным, причина: недооформленный торрент

max77777

2 | 110

11.52 ГБ

В этой теме нет новых непрочитанных сообщений. Ной / Noah [Драма, приключения, 2014] BDRip 720p, Dub+Sub [Лицензия]

Dracon

368 | 21

6.48 ГБ

В этой теме нет новых непрочитанных сообщений. Ной / NoahНой / Noah [Драма, приключения, 2014] BDRip 1080p, Dub+Avo+Sub [Лицензия]

Dracon

304 | 35

16.09 ГБ


Начать новую тему Ответить на тему  [ 1 сообщение ] 




Для Мосгорсуда, Роскомнадзора и рекламодателей:: mosgorsud-torrent[собачка]yandex.ru