Торрент файл
скачать торрент магнет ссылка Добавлен: 12 июл 2014, 22:24
Размер: 1.46 ГБ
Сидеров: 4
Личеров: 3
Статус: (salma3)
Автор

СообщениеДобавлено: 12 июл 2014, 22:24 

Не в сети
Супермодератор
Аватара пользователя
Дата регистрации:
15 фев 2012, 16:44
Возраст: 28
Спасибо: 6565 / 2130
Сообщения: 43672
Кровавая луна / Bloodmoon

Год выпуска: 1997
Жанр: Боевик, триллер
Режиссер: Тони Люн Сиу Хунг / Tony Leung Siu Hung

В ролях: Гэри Дэниелс, Чак Джеффрис, Фрэнк Горшин, Даррен Шахлави, Nina Repeta, Ли Джонс, Jeffrey Pillars, Brandie Rocci, Кит Витали, Джо Хесс, ...

Описание:
Безумный маньяк-убийца выслеживает и убивает сильнейших жертв, каких только может найти — мастеров восточных единоборств, чемпионов, доказавших свое первенство на ринге. Теперь они вынуждены драться не на жизнь, а на смерть.Перед департаментом полиции Нью-Йорка встает проблема — как выследить и остановить убийцу, владеющего восточными единоборствами на уровне чемпиона мира, который не оставляет практически никаких улик и сбивает сыщиков с толку своими посланиями через компьютерную сеть, электронную почту графические файлы и цифровое видео.Шеф полиции уговаривает Кена О`Хару, бывшего специалиста по серийным убийствам, вновь взять в руки оружие и остановить убийцу прежде, чем тот нанесет новый удар. Кен приступает к расследованию и пока еще не знает, что у него возникла одна большая проблема. Он — следующий в кровавом списке убийцы.



Страна: США
Продолжительность: 01:42:38
Перевод: Профессиональный (двухголосый закадровый) студия "Ракурс" по заказу "Екатеринбург Арт" (Home video)

Файл
Качество: DVDRip [исх. DVD5]
Формат файла: AVI
Видео кодек: XviD
Аудио кодек: AC3
Video: 640x480 (1.33:1), 23.976 fps, XviD build 50 ~1779 kbps avg, 0.24 bit/pixel
Audio: 48 kHz, AC3 Dolby Digital, 2/0 (L,R) ch, ~256.00 kbps avg

Время Раздачи 11-00 до 16-00 + 20-00 до 03-00

download\Bloodmon.1997.avi
Формат : AVI
Формат/Информация : Audio Video Interleave
Размер файла : 1,46 Гбайт
Продолжительность : 1 ч. 42 м.
Общий поток : 2045 Кбит/сек
Программа кодирования : VirtualDubMod 1.5.10.3 | http://www.virtualdub-fr.org || (build 2550/release)
Библиотека кодирования : VirtualDubMod build 2550/release

Видео
Идентификатор : 0
Формат : MPEG-4 Visual
Профиль формата : Advanced Simple@L5
Параметр BVOP формата : 3
Параметр QPel формата : Нет
Параметр GMC формата : Без точки перехода
Параметр матрицы формата : Default (H.263)
Идентификатор кодека : XVID
Идентификатор кодека/Подсказка : XviD
Продолжительность : 1 ч. 42 м.
Битрейт : 1780 Кбит/сек
Ширина : 640 пикселей
Высота : 480 пикселей
Соотношение сторон : 4:3
Частота кадров : 23,976 кадра/сек
Цветовое пространство : YUV
Субдискретизация насыщенности : 4:2:0
Битовая глубина : 8 бит
Тип развёртки : Прогрессивная
Метод сжатия : С потерями
Бит/(Пиксели*Кадры) : 0.242
Размер потока : 1,27 Гбайт (87%)
Библиотека кодирования : XviD 1.2.1 (UTC 2008-12-04)

Аудио
Идентификатор : 1
Формат : AC-3
Формат/Информация : Audio Coding 3
Расширение режима : CM (complete main)
Параметр Endianness формата : Big
Идентификатор кодека : 2000
Продолжительность : 1 ч. 42 м.
Вид битрейта : Постоянный
Битрейт : 256 Кбит/сек
Каналы : 2 канала
Расположение каналов : Front: L R
Частота : 48,0 КГц
Битовая глубина : 16 бит
Метод сжатия : С потерями
Размер потока : 188 Мбайт (13%)
Выравнивание : Разделение по промежуткам
Продолжительность промежутка : 42 мс. (1,00 видеокадр)
Время предзагрузки промежутка : 500 мс.

Релиз от:


_________________
Проголосуй за трекер Открытый торрент трекер - RUS-MEDIA.ORG

Проголосуй Открытый торрент трекер - RUS-MEDIA.ORG



реклама партнёра


Вернуться к началу
 Профиль Отправить личное сообщение  
 
   Похожие торренты   Автор   Торрент   Размер 
В этой теме нет новых непрочитанных сообщений. Кровавая луна / Blood Moon [ужасы, триллер, вестерн, 2014] HDRip, Avo

salma3

76 | 2

1.24 ГБ

В этой теме нет новых непрочитанных сообщений. Кровавая луна / Bloody Moon [ужасы, 1981] BDRip, Avo

salma3

74 | 26

1.46 ГБ

В этой теме нет новых непрочитанных сообщений. Луна 44 / Moon 44 [фантастика, боевик, триллер, 1990] BDRip 720p, Dub+Mvo+Dvo+Sub

salma3

44 | 5

4.28 ГБ

В этой теме нет новых непрочитанных сообщений. Кровавая ловушка / Blood Trap [ужасы, боевик, триллер, криминал, 2016] WEBDLRip, Avo

salma3

107 | 33

1.45 ГБ

В этой теме нет новых непрочитанных сообщений. Кровавая гонка / Кровавая езда / Blood Drive [S01] [Драма, ужасы, фантастика, 2017] WEB-DLRip, Mvo [IdeaFilm]

salma3

36 | 48

8.61 ГБ

В этой теме нет новых непрочитанных сообщений. Кровавая Работа / Blood Work [Боевик, триллер, драма, криминал, 2002] BDRip 720p, Mvo

salma3

35 | 18

7.05 ГБ

В этой теме нет новых непрочитанных сообщений. Кровавая ловушка / Blood Trap / Bite [ужасы, боевик, триллер, криминал, 2016] HDRip. avo

marya111

0 | 0

1.37 ГБ


Начать новую тему Ответить на тему  [ 1 сообщение ] 




Для Мосгорсуда, Роскомнадзора и рекламодателей:: mosgorsud-torrent[собачка]yandex.ru