Торрент файл
скачать торрент магнет ссылка Добавлен: 12 июл 2014, 13:12
Размер: 1.46 ГБ
Сидеров: 92
Личеров: 9
Статус: (salma3)
Автор

СообщениеДобавлено: 12 июл 2014, 13:12 

Не в сети
Супермодератор
Аватара пользователя
Дата регистрации:
15 фев 2012, 16:44
Возраст: 28
Спасибо: 6578 / 2143
Сообщения: 43974
Ниндзя из Беверли Хиллз / Beverly Hills Ninja

Год выхода: 1997
Жанр: Комедия, приключения, боевик
Режиссер: Дэннис Дуган

В ролях: Крис Фарли, Николлетт Шеридан, Натаниель Паркер, Сун-Тек Ох, Крис Рок, Робин Шу, Кит Кук Хирабаяси, Франсуа Чау, Дэйл Исимото, Да Минг Чен, Берт Булосб Кертис Бланк, Том Бэйли, Джейсон Дж. Тобин, Ричард Кляйн, Анна Матиас, Натан Юнг, Джон Фарли, Джерри Дель Сол, Синтия Эллисон, Франческа Каппуччи, Хидео Кимура, Джеймс Лэйн

О фильме:
Ниндзя — таинственный, пугающий и очень хитрый воин тьмы, который ничего не боится и не поддается контролю. Таким хотел видеть своего приемного сына наставник ниндзя, случайно подобрав младенца на берегу. И хотя из него и вырос толстый болван, он все равно должен стать воином и выполнить миссию ниндзя — вызволить из беды голливудскую красотку. Но здесь, в Беверли Хиллз, ему приходится столкнуться с настоящими убийцами, которые знают тайны кунг-фу получше его, и сразиться с ними, как бы это смешно ни выглядело при его умении, а главное, весе...



Страна: США
Студия: Beverly Hills Ninja Productions, Motion Picture Corporation of America (MPCA)
Продолжительность: 01:28:36
Перевод: Профессиональный [многоголосый]

Файл
Качество: HDRip
Формат файла: AVI
Видео кодек: XviD
Аудио кодек: AC3
Видео: XviD, 720x400 (16:9), 2161 Кбит/с, 23,976 кадр/с
Звук: Русский, Dolby AC3, 48000 Гц, 192 Кбит/с, 2 канала (Стерео) - MVO, РТР



General
Complete name : Ninja.iz.Beverly.Hills.1997.HDRip.avi
Format : AVI
Format/Info : Audio Video Interleave
File size : 1.46 GiB
Duration : 1h 28mn
Overall bit rate : 2 361 Kbps
Movie name : Ниндзя из Беверли Хиллз / Beverly Hills Ninja (1997) HDRip
Genre : Комедия, боевик
Recorded date : 12.07.2014
Writing application : VirtualDubMod 1.5.10.3 | http://www.virtualdub-fr.org || (build 2550/release)
Writing library : VirtualDubMod build 2550/release
Copyright : rip by ivandubskoj

Video
ID : 0
Format : MPEG-4 Visual
Format profile : Advanced Simple@L5
Format settings, BVOP : 1
Format settings, QPel : No
Format settings, GMC : No warppoints
Format settings, Matrix : Custom
Codec ID : XVID
Codec ID/Hint : XviD
Duration : 1h 28mn
Bit rate : 2 161 Kbps
Width : 720 pixels
Height : 400 pixels
Display aspect ratio : 16:9
Frame rate : 23.976 fps
Color space : YUV
Chroma subsampling : 4:2:0
Bit depth : 8 bits
Scan type : Progressive
Compression mode : Lossy
Bits/(Pixel*Frame) : 0.313
Stream size : 1.34 GiB (92%)
Writing library : XviD 73

Audio
ID : 1
Format : AC-3
Format/Info : Audio Coding 3
Mode extension : CM (complete main)
Codec ID : 2000
Duration : 1h 28mn
Bit rate mode : Constant
Bit rate : 192 Kbps
Channel(s) : 2 channels
Channel positions : Front: L R
Sampling rate : 48.0 KHz
Bit depth : 16 bits
Compression mode : Lossy
Stream size : 122 MiB (8%)
Alignment : Split accross interleaves
Interleave, duration : 64 ms (1.53 video frames)
Interleave, preload duration : 500 ms
Title : Russian (MVO, РТР)


Автор рипа - ivandubskoj


_________________
Проголосуй за трекер Открытый торрент трекер - RUS-MEDIA.ORG

Проголосуй Открытый торрент трекер - RUS-MEDIA.ORG



реклама партнёра


Вернуться к началу
 Профиль Отправить личное сообщение  
 
   Похожие торренты   Автор   Торрент   Размер 
В этой теме нет новых непрочитанных сообщений. Отряд Беверли Хиллз / Troop Beverly Hills [комедия, приключения, 1989] HDRip, Mvo

salma3

33 | 1

1.47 ГБ

В этой теме нет новых непрочитанных сообщений. Трущобы Беверли Хиллз / Slums of Beverly Hills [драма, комедия, 1998] HDRip, Mvo

salma3

4 | 4

1.45 ГБ

В этой теме нет новых непрочитанных сообщений. Отряд Беверли Хиллз / Troop Beverly Hills [Комедия, Приключения, 1989] WEB-DLRip-AVC, Mvo+Sub

salma3

25 | 6

1.46 ГБ

В этой теме нет новых непрочитанных сообщений. Полицейский из Беверли-Хиллз 2 / Beverly Hills Cop II [боевик, триллер, комедия, 1987] WEB-DL 1080p, Mvo+Avo+Sub [Open Matte]

salma3

13 | 9

15.61 ГБ

В этой теме нет новых непрочитанных сообщений. Террор в Беверли Хиллз / Terror in Beverly Hills [Боевик, 1989] DVDRip, Avo

salma3

0 | 2

1.36 ГБ

В этой теме нет новых непрочитанных сообщений. Трущобы Беверли Хиллз / Slums of Beverly Hills [драма, комедия, 1998] BDRip AVC, Mvo+Sub

salma3

28 | 4

2.31 ГБ

В этой теме нет новых непрочитанных сообщений. Трущобы Беверли Хиллз / Slums of Beverly Hills [драма, комедия, 1998] BDRip 720p, Mvo+Sub

salma3

46 | 2

3.81 ГБ


Начать новую тему Ответить на тему  [ 1 сообщение ] 




Для Мосгорсуда, Роскомнадзора и рекламодателей:: mosgorsud-torrent[собачка]yandex.ru