Торрент файл
скачать торрент магнет ссылка Добавлен: 10 июл 2014, 11:59
Размер: 1.88 ГБ
Сидеров: 295
Личеров: 16
Статус: (salma3)
Автор

СообщениеДобавлено: 10 июл 2014, 11:59 

В сети
Супермодератор
Аватара пользователя
Дата регистрации:
15 фев 2012, 16:44
Возраст: 27
Спасибо: 5135 / 2089
Сообщения: 17405
Ледяная комета / Айсмен / Bing Fung: Chung Sang Chi Mun / Iceman

Год выпуска: 2014
Жанр: Фантастика, боевик, комедия, исторический
Режиссер: Винг-Чеонг Лау

В ролях: Донни Йен, Ван Баоцян, Ева Хуан, Юй Кан, Саймон Ям, Хой-Панг Ло, Сует Лам, Сингх Хартихан Битто, Хо-Ман Чан, Сиу Ва Чан

О фильме: Капитана императорской гвардии времён династии Мин ошибочно обвиняют в убийстве и в сговоре с врагом, его бывшие товарищи гвардейцы отправляются за ним в погоню. Но их битва заканчивается тем, что все трое оказываются погребёнными на 300 лет под снегом сошедшей лавины.Замороженных солдат, найденных филантропом-богачом, отправляют обратно в Гонконг для изучения, но те оттаивают и сбегают.В ночь на Хэллоуин беглец находит убежище у выпившей и эмоционально истощённой барменши, и постепенно она помогает ему влиться в общество 21-го века.Тем временем, у остальных гвардейцев свои планы: один до сих пор хочет выследить беглеца и придать его правосудию, а другой решает заработать себе имя в современном Гонконге.



Выпущено: Китай, Гонконг, China 3D Digital Entertainment
Продолжительность: 01:44:13
Перевод: Любительский [двухголосый]
Субтитры: Английские

Файл
Качество: BDRip-AVC
Формат файла: AVC
Видео кодек: MPEG-4
Аудио кодек: AC3
Видео: MPEG-4 AVC, 2385 Kбит/с, 1024x456
Аудио: АС3, 2 ch, 192 Кбит/с

Перевод: Эльза Нордж, Мария Беликова, Мирина Торлин
Работа со звуком: Ольга Гринтиева
Озвучивание: Франк Цветков и Елена Егорова

General
Unique ID : 180143647797764182887687351266590676914 (0x87866791251B73A3BC825923964957B2)
Complete name : C:The.Iceman.2014.BDRip.AVC.ExKinoRay.mkv
Format : Matroska
Format version : Version 2
File size : 1.88 GiB
Duration : 1h 44mn
Overall bit rate : 2 578 Kbps
Movie name : The Iceman 2014 from ExKinoRay
Encoded date : UTC 2014-07-10 05:38:40
Writing application : mkvmerge v4.9.1 ('Ich will') built on Jul 11 2011 23:53:15
Writing library : libebml v1.2.1 + libmatroska v1.1.1

Video
ID : 1
Format : AVC
Format/Info : Advanced Video Codec
Format profile : High@L4.1
Format settings, CABAC : Yes
Format settings, ReFrames : 9 frames
Codec ID : V_MPEG4/ISO/AVC
Duration : 1h 44mn
Bit rate : 2 385 Kbps
Width : 1 024 pixels
Height : 456 pixels
Display aspect ratio : 2.25:1
Frame rate mode : Constant
Frame rate : 23.976 fps
Color space : YUV
Chroma subsampling : 4:2:0
Bit depth : 8 bits
Scan type : Progressive
Bits/(Pixel*Frame) : 0.213
Stream size : 1.70 GiB (91%)
Title : Enigma-Vladislav71
Writing library : x264 core 116 r2044 392e762
Encoding settings : cabac=1 / ref=9 / deblock=1:-2:-2 / analyse=0x3:0x113 / me=umh / subme=10 / psy=1 / psy_rd=1.00:0.20 / mixed_ref=1 / me_range=32 / chroma_me=1 / trellis=2 / 8x8dct=1 / cqm=0 / deadzone=21,11 / fast_pskip=0 / chroma_qp_offset=-3 / threads=12 / sliced_threads=0 / nr=0 / decimate=0 / interlaced=0 / bluray_compat=0 / constrained_intra=0 / bframes=9 / b_pyramid=2 / b_adapt=2 / b_bias=0 / direct=3 / weightb=1 / open_gop=0 / weightp=2 / keyint=240 / keyint_min=23 / scenecut=40 / intra_refresh=0 / rc=2pass / mbtree=0 / bitrate=2385 / ratetol=1.0 / qcomp=0.60 / qpmin=0 / qpmax=69 / qpstep=4 / cplxblur=20.0 / qblur=0.5 / ip_ratio=1.40 / pb_ratio=1.30 / aq=1:1.00
Default : Yes
Forced : No

Audio
ID : 2
Format : AC-3
Format/Info : Audio Coding 3
Mode extension : CM (complete main)
Format settings, Endianness : Big
Codec ID : A_AC3
Duration : 1h 44mn
Bit rate mode : Constant
Bit rate : 192 Kbps
Channel(s) : 2 channels
Channel positions : Front: L R
Sampling rate : 48.0 KHz
Bit depth : 16 bits
Compression mode : Lossy
Stream size : 143 MiB (7%)
Title : GREEN TEA
Language : Russian
Default : Yes
Forced : No

Text
ID : 3
Format : UTF-8
Codec ID : S_TEXT/UTF8
Codec ID/Info : UTF-8 Plain Text
Language : English
Default : No
Forced : No

Menu
00:00:00.000 : en:Chapter 01
00:04:42.156 : en:Chapter 02
00:09:50.339 : en:Chapter 03
00:14:33.497 : en:Chapter 04
00:20:27.059 : en:Chapter 05
00:24:54.701 : en:Chapter 06
00:29:04.492 : en:Chapter 07
00:33:48.818 : en:Chapter 08
00:39:08.721 : en:Chapter 09
00:43:02.746 : en:Chapter 10
00:48:32.618 : en:Chapter 11
00:53:54.147 : en:Chapter 12
00:57:25.650 : en:Chapter 13
01:01:27.058 : en:Chapter 14
01:07:28.794 : en:Chapter 15
01:10:39.443 : en:Chapter 16
01:17:05.746 : en:Chapter 17
01:20:45.006 : en:Chapter 18
01:25:17.070 : en:Chapter 19
01:36:18.063 : en:Chapter 20





Релиз от: Авторы релиза:


_________________



реклама партнёра


Вернуться к началу
 Профиль Отправить личное сообщение  
 
   Похожие торренты   Автор   Торрент   Размер 
В этой теме нет новых непрочитанных сообщений. Ледяная комета 3D / Bing Fung: Chung Sang Chi Mun / Iceman [Фантастика, Боевик, Комедия, История, 2014] BDRip 1080p, dvo [3D-Video]

Dracon

237 | 38

9.22 ГБ

В этой теме нет новых непрочитанных сообщений. Ледяная комета 3D / The Iceman / Bing Fung: Chung Sang Chi Mun [фантастика, боевик, комедия, история, 2014] HDRip. Dvo

salma3

162 | 4

1.37 ГБ

В этой теме нет новых непрочитанных сообщений. Мисс Бабуля / Su-sang-han geu-nyeo / Miss Granny [Комедия,2014] BDRip 720p, dvo

Dracon

22 | 3

4.68 ГБ

В этой теме нет новых непрочитанных сообщений. Ледяная угроза / Christmas Icetastrophe [триллер, фантастика, катастрофа, 2014] SATRip, Mvo

salma3

5 | 4

752.19 МБ

В этой теме нет новых непрочитанных сообщений. Ледяная угроза / Christmas Icetastrophe (Джонатан Уинфри) [триллер, фантастика, катастрофа, 2014] HDRip, Mvo

Dracon

1190 | 52

1.37 ГБ

В этой теме нет новых непрочитанных сообщений. Огненная буря / Firestorm / Fung bou [боевик, криминал, 2013] BDRip 720p, Dvo

salma3

62 | 6

4.51 ГБ

В этой теме нет новых непрочитанных сообщений. Дурная кровь / Mauvais sang [фантастика, триллер, драма, 1986] BDRip 720p, Mvo

salma3

55 | 35

6.09 ГБ


Начать новую тему Ответить на тему  [ 1 сообщение ] 




Для Мосгорсуда, Роскомнадзора и рекламодателей:: mosgorsud-torrent[собачка]yandex.ru