Торрент файл
скачать торрент магнет ссылка Добавлен: 07 июл 2014, 21:37
Размер: 1.46 ГБ
Сидеров: 18
Личеров: 4
Статус: (salma3)
Автор

СообщениеДобавлено: 07 июл 2014, 21:37 

Не в сети
Супермодератор
Аватара пользователя
Дата регистрации:
15 фев 2012, 16:44
Возраст: 28
Спасибо: 6577 / 2143
Сообщения: 43952
Немезида / Nemesis

Год выхода: 1992
Жанр: фантастика, боевик
Режиссер: Альберт Пьюн / Albert Pyun

В ролях: Оливье Грюнер, Тим Томерсон, Кэри-Хироюки Тагава, Мерл Кеннеди, Юдзи Окумото, Марджори Монахэн

О фильме:
Кибернетика достигла такого могущества, что любая часть тела может быть заменена, даже мозг. Эта сверхтехнология порождает существа, которые являются скорее киборгами, чем людьми.
Секретный агент Алекс после многочисленых ранений подвергся кибернетической хирургии. Он попытался отказаться вернуться на службу, но его обвинили в контрабанде и имплантировали в сердце бомбу, которая может быть взорвана в любой момент. Теперь у Алекса нет выбора, он должен отыскать похищенный компьютерный чип, за которым отчаянно охотятся террористы. Этот чип — ключ к плану киборгов захватить власть на Земле.
Основная подозреваемая — Джаред, коллега и бывшая любовница Алекса. Но оказавшись у цели, Алекс обнаруживает, что его используют как наживку, на которую можно «выманить» Джаред и террористов.

Страна: США, Дания
Продолжительность: 01:35:41
Перевод: Профессиональный (двухголосый закадровый) [Twister]

Файл
Качество: HDRip
Формат файла: AVI
Видео кодек: XviD
Аудио кодек: AC3
Видео: 704x400, 23.976 fps, 1730 Kbps
Звук: 48 KHz, AC3, 6 ch, 448 Kbps

Общее
Полное имя : Nemesis 1992.HDRip.avi
Формат : AVI
Формат/Информация : Audio Video Interleave
Размер файла : 1,46 Гбайт
Продолжительность : 1 ч. 35 м.
Общий поток : 2187 Кбит/сек
Программа кодирования : VirtualDubMod 1.5.10.3 | http://www.virtualdub-fr.org || (build 2550/release)
Библиотека кодирования : VirtualDubMod build 2550/release

Видео
Идентификатор : 0
Формат : MPEG-4 Visual
Профиль формата : Advanced Simple@L5
Параметр BVOP формата : 1
Параметр QPel формата : Нет
Параметр GMC формата : Без точки перехода
Параметр матрицы формата : Выборочная
Идентификатор кодека : XVID
Идентификатор кодека/Подсказка : XviD
Продолжительность : 1 ч. 35 м.
Битрейт : 1730 Кбит/сек
Ширина : 704 пикс.
Высота : 400 пикс.
Соотношение сторон : 16:9
Частота кадров : 23,976 кадр/сек
Цветовое пространство : YUV
Подвыборка цветности : 4:2:0
Битовая глубина : 8 бит
Тип развёртки : Прогрессивная
Метод сжатия : С потерями
Бит/(Пиксели*Кадры) : 0.256
Размер потока : 1,16 Гбайт (79%)
Библиотека кодирования : XviD 73

Аудио
Идентификатор : 1
Формат : AC-3
Формат/Информация : Audio Coding 3
Расширение режима : CM (complete main)
Идентификатор кодека : 2000
Продолжительность : 1 ч. 35 м.
Вид битрейта : Постоянный
Битрейт : 448 Кбит/сек
Канал(ы) : 6 канала(ов)
Расположение каналов : Front: L C R, Side: L R, LFE
Частота : 48,0 КГц
Битовая глубина : 16 бит
Метод сжатия : С потерями
Размер потока : 307 Мбайт (20%)
Выравнивание : Разделение по промежуткам
Продолжительность промежутка : 42 мс. (1,00 видеокадр)
Время предзагрузки промежутка : 500 ms


Релиз от: Leon-masl


_________________
Проголосуй за трекер Открытый торрент трекер - RUS-MEDIA.ORG

Проголосуй Открытый торрент трекер - RUS-MEDIA.ORG



реклама партнёра


Вернуться к началу
 Профиль Отправить личное сообщение  
 
   Похожие торренты   Автор   Торрент   Размер 
В этой теме нет новых непрочитанных сообщений. Немезида / Nemesis [Фантастика, боевик, триллер, 1992] BDRip 1080p, Dvo

salma3

81 | 27

7.05 ГБ

В этой теме нет новых непрочитанных сообщений. Немезида 2: Невидимка / Nemesis 2: Nebula [фантастика, боевик, триллер, 1995] BDRip 1080p, Avo+Sub

salma3

59 | 28

6.39 ГБ

В этой теме нет новых непрочитанных сообщений. Немезида 4: Ангел смерти / Nemesis 4: Death Angel [фантастика, боевик, триллер, 1996] DVDRip, Avo

salma3

120 | 33

1.24 ГБ

В этой теме нет новых непрочитанных сообщений. Немезида 4: Ангел смерти / Nemesis 4: Death Angel [фантастика, боевик, триллер, 1996] BDRip 1080p, Avo

salma3

61 | 28

5.8 ГБ

В этой теме нет новых непрочитанных сообщений. Тайны Вселенной. Немезида - Злобный спутник Солнца / The Universe. Nemesis - The Sun's Evil Twin (Джон Томсон) [2011, документальный, BDRip-AVC (1080р)] VO

salma3

1 | 1

756.61 МБ

В этой теме нет новых непрочитанных сообщений. Крепость / Fortress [Боевик, фантастика, 1992] BDRemux 1080p, Dub

salma3

7 | 5

22.18 ГБ

В этой теме нет новых непрочитанных сообщений. Крепость / Fortress [Фантастика, боевик, триллер, 1992] BDRip 720p, Dvo

salma3

23 | 4

9.3 ГБ


Начать новую тему Ответить на тему  [ 1 сообщение ] 




Для Мосгорсуда, Роскомнадзора и рекламодателей:: mosgorsud-torrent[собачка]yandex.ru